<?xml version="1.0" standalone="no"?>
<!DOCTYPE svg PUBLIC "-//W3C//DTD SVG 1.1//EN" "http://www.w3.org/Graphics/SVG/1.1/DTD/svg11.dtd" >
<svg xmlns="http://www.w3.org/2000/svg" xmlns:xlink="http://www.w3.org/1999/xlink" version="1.1">
<metadata>
Created by FontForge 20170731 at Fri Jul  8 21:54:00 2016
 By Aleksey,,,
Copyright (c) 2016 by Radomir Tinkov. All rights reserved.
</metadata>
<defs>
<font id="Gilroy-Medium" horiz-adv-x="633" >
  <font-face 
    font-family="Gilroy-Medium"
    font-weight="400"
    font-stretch="normal"
    units-per-em="1000"
    panose-1="0 0 6 0 0 0 0 0 0 0"
    ascent="774"
    descent="-226"
    x-height="500"
    cap-height="700"
    bbox="-350 -248 1034 965"
    underline-thickness="50"
    underline-position="-150"
    unicode-range="U+0020-FB02"
  />
<missing-glyph horiz-adv-x="500" 
d="M410 800v-1000h-317v1000h317zM333 733h-165v-33h65v-37h-66v-33h166v33h-66v37h66v33zM267 604h-100v-104h166v34h-66v70zM233 570v-36h-33v36h33zM333 473h-166v-33h66v-37h-66v-33h100v70h66v33zM333 413h-33v-66h-133v-34h166v100zM333 291h-100v-56h34v23h33v-47
h-100v80h-33v-113h166v113zM333 118h-166v-113h166v113zM300 85v-47h-100v47h100zM333 -18h-166v-33h70l-70 -47v-33h166v33h-102l70 47h32v33z" />
    <glyph glyph-name="fi" unicode="fi" horiz-adv-x="530" 
d="M463 500v-500h-87v416h-185v-416h-87v416h-80v84h80v15q0 198 219 198q41 0 103 -13v-79q-61 8 -103 8q-68 0 -100 -25.5t-32 -88.5v-15h272z" />
    <glyph glyph-name="fl" unicode="fl" horiz-adv-x="530" 
d="M323 713q60 0 140 -15v-698h-87v633q-36 2 -53 2q-67 0 -99.5 -28t-32.5 -92v-15h104v-84h-104v-416h-87v416h-80v84h80v15q0 198 219 198z" />
    <glyph glyph-name="f_f" unicode="ff" horiz-adv-x="595" 
d="M595 639q-131 11 -131 -114v-25h131v-84h-131v-416h-87v416h-186v-416h-87v416h-80v84h80v15q0 101 56.5 153t162.5 45v-84q-132 11 -132 -114v-15h186v25q0 101 56 153t162 45v-84z" />
    <glyph glyph-name="f_f_i" unicode="ffi" horiz-adv-x="802" 
d="M736 500v-500h-87v416h-185v-416h-87v416h-186v-416h-87v416h-80v84h80v15q0 101 56.5 153t162.5 45v-84q-132 11 -132 -114v-15h186v25q0 198 218 198q43 0 103 -13v-79q-59 8 -103 8q-68 0 -99.5 -25.5t-31.5 -88.5v-25h272z" />
    <glyph glyph-name="f_f_l" unicode="ffl" horiz-adv-x="802" 
d="M595 723q61 0 141 -15v-708h-87v643q-36 2 -54 2q-67 0 -99 -28t-32 -92v-25h104v-84h-104v-416h-87v416h-186v-416h-87v416h-80v84h80v15q0 101 56.5 153t162.5 45v-84q-132 11 -132 -114v-15h186v25q0 198 218 198z" />
    <glyph glyph-name=".notdef" horiz-adv-x="500" 
d="M410 800v-1000h-317v1000h317zM333 733h-165v-33h65v-37h-66v-33h166v33h-66v37h66v33zM267 604h-100v-104h166v34h-66v70zM233 570v-36h-33v36h33zM333 473h-166v-33h66v-37h-66v-33h100v70h66v33zM333 413h-33v-66h-133v-34h166v100zM333 291h-100v-56h34v23h33v-47
h-100v80h-33v-113h166v113zM333 118h-166v-113h166v113zM300 85v-47h-100v47h100zM333 -18h-166v-33h70l-70 -47v-33h166v33h-102l70 47h32v33z" />
    <glyph glyph-name=".null" horiz-adv-x="0" 
 />
    <glyph glyph-name="nonmarkingreturn" horiz-adv-x="333" 
 />
    <glyph glyph-name="space" unicode=" " horiz-adv-x="250" 
 />
    <glyph glyph-name="exclam" unicode="!" horiz-adv-x="243" 
d="M88 205l-19 295v200h105v-200l-19 -295h-67zM121 -11q-27 0 -46 19t-19 46t19 46t46 19q28 0 46.5 -19t18.5 -46t-18.5 -46t-46.5 -19z" />
    <glyph glyph-name="quotedbl" unicode="&#x22;" horiz-adv-x="333" 
d="M60 490l-12 210h87l-12 -210h-63zM210 490l-12 210h87l-12 -210h-63z" />
    <glyph glyph-name="numbersign" unicode="#" horiz-adv-x="605" 
d="M565 405h-116l-18 -110h117l-12 -72h-117l-29 -173h-76l29 173h-122l-29 -173h-77l29 173h-116l12 72h116l18 110h-117l12 73h117l29 172h77l-29 -172h122l29 172h76l-29 -172h116zM355 295l18 110h-122l-18 -110h122z" />
    <glyph glyph-name="dollar" unicode="$" horiz-adv-x="550" 
d="M515 187q0 -82 -54 -135t-140 -63v-89h-63v88q-82 6 -139.5 45t-83.5 105l80 46q34 -93 143 -105v242q-45 16 -72.5 29.5t-57.5 36.5t-44.5 56.5t-14.5 77.5q0 81 54 132t135 59v88h63v-89q60 -8 107 -42t73 -92l-78 -44q-29 73 -102 87v-230q46 -17 73 -30t59 -36.5
t47 -57.5t15 -79zM161 521q0 -38 23 -62t74 -45v207q-44 -6 -70.5 -32.5t-26.5 -67.5zM321 81q48 7 74.5 35.5t26.5 69.5t-24.5 65.5t-76.5 46.5v-217z" />
    <glyph glyph-name="percent" unicode="%" horiz-adv-x="728" 
d="M213 403q-68 0 -113 45t-45 110q0 64 45.5 109.5t112.5 45.5q68 0 113 -45t45 -110t-44.5 -110t-113.5 -45zM213 476q35 0 57.5 24t22.5 58t-22.5 57.5t-57.5 23.5t-57.5 -23.5t-22.5 -57.5q0 -35 22.5 -58.5t57.5 -23.5zM102 99l465 520l49 -27l-466 -521zM515 -12
q-68 0 -113 45t-45 110t45 110t113 45t113 -45t45 -110t-45 -110t-113 -45zM515 62q35 0 57.5 23.5t22.5 57.5t-22.5 57.5t-57.5 23.5t-57.5 -23.5t-22.5 -57.5t22.5 -57.5t57.5 -23.5z" />
    <glyph glyph-name="ampersand" unicode="&#x26;" horiz-adv-x="662" 
d="M639 29l-78 -45l-71 76q-78 -73 -200 -73q-105 0 -170 54.5t-65 147.5q0 64 32.5 117.5t95.5 84.5q-45 57 -45 127q0 87 60.5 141t145.5 54q70 0 127 -38t82 -105l-78 -45q-15 46 -49.5 72t-79.5 26q-48 0 -81.5 -29t-33.5 -75q0 -33 15.5 -59.5t46.5 -59.5l191 -204
q25 52 36 127l80 -46q-14 -83 -54 -149zM292 75q83 0 138 49l-189 203q-48 -20 -70.5 -56t-22.5 -76q0 -56 38 -88t106 -32z" />
    <glyph glyph-name="quotesingle" unicode="'" horiz-adv-x="183" 
d="M60 490l-12 210h87l-12 -210h-63z" />
    <glyph glyph-name="parenleft" unicode="(" horiz-adv-x="280" 
d="M168 -100q-110 220 -110 450t110 450h87q-110 -220 -110 -450t110 -450h-87z" />
    <glyph glyph-name="parenright" unicode=")" horiz-adv-x="280" 
d="M112 -100h-87q110 220 110 450t-110 450h87q110 -220 110 -450t-110 -450z" />
    <glyph glyph-name="asterisk" unicode="*" horiz-adv-x="394" 
d="M337 610v-64l-91 4l53 -73l-57 -34l-45 82l-45 -82l-56 34l52 73l-90 -4v64l90 -5l-52 74l56 34l45 -82l45 82l57 -34l-53 -74z" />
    <glyph glyph-name="plus" unicode="+" horiz-adv-x="545" 
d="M488 392v-83h-174v-174h-83v174h-173v83h173v173h83v-173h174z" />
    <glyph glyph-name="comma" unicode="," horiz-adv-x="253" 
d="M196 103l-65 -243h-75l40 243h100z" />
    <glyph glyph-name="hyphen" unicode="-" horiz-adv-x="515" 
d="M75 265v84h365v-84h-365z" />
    <glyph glyph-name="period" unicode="." horiz-adv-x="243" 
d="M121 -11q-27 0 -46 19t-19 46t19 46t46 19q28 0 46.5 -19t18.5 -46t-18.5 -46t-46.5 -19z" />
    <glyph glyph-name="slash" unicode="/" horiz-adv-x="528" 
d="M90 -100h-52l400 900h52z" />
    <glyph glyph-name="zero" unicode="0" horiz-adv-x="630" 
d="M315 -13q-128 0 -199 99t-71 264t71 264t199 99t199 -99t71 -264t-71 -264t-199 -99zM315 78q85 0 131.5 71t46.5 201t-46.5 201.5t-131.5 71.5t-131 -71t-46 -202q0 -130 46 -201t131 -71z" />
    <glyph glyph-name="one" unicode="1" horiz-adv-x="356" 
d="M198 700h80v-700h-92v600l-149 -44l-23 80z" />
    <glyph glyph-name="two" unicode="2" horiz-adv-x="527" 
d="M36 0v76l247 252q99 99 99 170q0 59 -36 92t-88 33q-99 0 -144 -94l-78 46q33 68 91.5 103t129.5 35q88 0 153 -58t65 -156q0 -106 -125 -231l-179 -178h317v-90h-452z" />
    <glyph glyph-name="three" unicode="3" horiz-adv-x="535" 
d="M316 413q80 -15 131 -69t51 -137q0 -102 -70 -161t-170 -59q-80 0 -142 36.5t-88 105.5l78 46q31 -97 152 -97q65 0 106 34t41 95t-41 95.5t-106 34.5h-24l-37 57l162 219h-311v87h420v-82z" />
    <glyph glyph-name="four" unicode="4" horiz-adv-x="580" 
d="M559 220v-87h-85v-133h-93v133h-357v87l251 480h100l-251 -480h257v198h93v-198h85z" />
    <glyph glyph-name="five" unicode="5" horiz-adv-x="543" 
d="M270 427q99 0 167.5 -58.5t68.5 -161.5q0 -102 -70 -161t-170 -59q-80 0 -143 38.5t-88 111.5l79 45q14 -51 54 -77.5t98 -26.5q66 0 107 34t41 95t-41 95.5t-105 34.5h-198l26 363h383v-87h-299l-12 -186h102z" />
    <glyph glyph-name="six" unicode="6" horiz-adv-x="538" 
d="M269 458q105 0 173 -65.5t68 -169.5t-68 -170t-173 -66q-106 0 -173.5 66t-67.5 170q0 81 42 140l225 337h106l-165 -244q22 2 33 2zM269 76q66 0 107.5 40.5t41.5 106.5t-41.5 106t-107.5 40q-67 0 -108 -40t-41 -106t41.5 -106.5t107.5 -40.5z" />
    <glyph glyph-name="seven" unicode="7" horiz-adv-x="490" 
d="M18 700h437v-83l-255 -617h-97l253 612h-338v88z" />
    <glyph glyph-name="eight" unicode="8" horiz-adv-x="555" 
d="M408 362q51 -26 80 -70t29 -100q0 -96 -67 -150.5t-173 -54.5q-105 0 -172 54.5t-67 150.5q0 56 29 100t80 70q-86 54 -86 153q0 95 63.5 146.5t152.5 51.5q90 0 153.5 -51.5t63.5 -146.5q0 -99 -86 -153zM277 624q-53 0 -88.5 -28t-35.5 -83q0 -53 36 -82.5t88 -29.5
t88 29.5t36 82.5q0 55 -35 83t-89 28zM277 76q67 0 107.5 31.5t40.5 90.5q0 58 -40.5 89.5t-107.5 31.5q-66 0 -106.5 -31.5t-40.5 -89.5q0 -59 40.5 -90.5t106.5 -31.5z" />
    <glyph glyph-name="nine" unicode="9" horiz-adv-x="538" 
d="M510 478q0 -81 -43 -141h1l-226 -337h-105l166 245q-22 -2 -34 -2q-106 0 -173.5 65.5t-67.5 169.5t67.5 169.5t173.5 65.5t173.5 -65.5t67.5 -169.5zM120 478q0 -66 41.5 -106.5t107.5 -40.5t107.5 40.5t41.5 106.5t-41 106t-108 40q-66 0 -107.5 -40t-41.5 -106z" />
    <glyph glyph-name="colon" unicode=":" horiz-adv-x="243" 
d="M121 382q-27 0 -46 19t-19 46t19 46t46 19q28 0 46.5 -19t18.5 -46t-18.5 -46t-46.5 -19zM121 -11q-27 0 -46 19t-19 46t19 46t46 19q28 0 46.5 -19t18.5 -46t-18.5 -46t-46.5 -19z" />
    <glyph glyph-name="semicolon" unicode=";" horiz-adv-x="256" 
d="M135 382q-27 0 -46 19t-19 46t19 46t46 19q28 0 46.5 -19t18.5 -46t-18.5 -46t-46.5 -19zM196 103l-65 -243h-75l40 243h100z" />
    <glyph glyph-name="less" unicode="&#x3c;" horiz-adv-x="523" 
d="M468 573v-94l-314 -129l314 -128v-94l-413 180v85z" />
    <glyph glyph-name="equal" unicode="=" horiz-adv-x="535" 
d="M55 410v83h425v-83h-425zM55 207v83h425v-83h-425z" />
    <glyph glyph-name="greater" unicode="&#x3e;" horiz-adv-x="523" 
d="M55 573l413 -180v-85l-413 -180v94l314 128l-314 129v94z" />
    <glyph glyph-name="question" unicode="?" horiz-adv-x="539" 
d="M205 205q0 44 19 82t46 65t54 51.5t46 54t19 62.5q0 50 -34.5 76.5t-89.5 26.5q-110 0 -141 -97l-79 44q25 70 85 106.5t136 36.5q89 0 152.5 -50t63.5 -139q0 -42 -19 -79t-46 -64t-54 -52.5t-46 -57t-19 -66.5h-93zM251 -11q-27 0 -46 19t-19 46t19 46t46 19
q28 0 46.5 -19t18.5 -46t-18.5 -46t-46.5 -19z" />
    <glyph glyph-name="at" unicode="@" horiz-adv-x="789" 
d="M402 612q106 0 188 -51.5t122 -128.5t40 -162q0 -105 -44 -159.5t-105 -54.5q-95 0 -119 84q-40 -51 -107 -51q-68 0 -112.5 46t-44.5 115t44.5 115t112.5 46q60 0 101 -44v36h77v-221q0 -88 63 -88q44 0 72.5 43.5t28.5 132.5q0 132 -91.5 222t-225.5 90
q-138 0 -235 -95.5t-97 -236.5q0 -144 99.5 -238t250.5 -94q99 0 170 28v-32q-70 -26 -170 -26q-164 0 -273 102.5t-109 259.5q0 151 104.5 256.5t259.5 105.5zM389 161q38 0 63.5 24.5t25.5 64.5t-25.5 64.5t-63.5 24.5t-64.5 -24.5t-26.5 -64.5t26.5 -64.5t64.5 -24.5z
" />
    <glyph glyph-name="A" unicode="A" horiz-adv-x="643" 
d="M536 0l-57 157h-315l-57 -157h-99l261 700h105l261 -700h-99zM196 244h251l-126 345z" />
    <glyph glyph-name="B" unicode="B" horiz-adv-x="615" 
d="M475 363q48 -23 76.5 -66t28.5 -99q0 -84 -59 -141t-144 -57h-302v700h280q82 0 139 -55t57 -136q0 -93 -76 -146zM355 613h-187v-214h187q44 0 74 31t30 76q0 44 -30.5 75.5t-73.5 31.5zM377 87q47 0 79 33t32 81q0 47 -32.5 80t-78.5 33h-209v-227h209z" />
    <glyph glyph-name="C" unicode="C" horiz-adv-x="739" 
d="M404 -13q-159 0 -262.5 105t-103.5 258t103.5 258t262.5 105q96 0 176.5 -46t125.5 -124l-81 -47q-30 58 -89.5 92.5t-131.5 34.5q-121 0 -197.5 -78t-76.5 -195q0 -116 76.5 -194t197.5 -78q72 0 131.5 34.5t89.5 91.5l81 -46q-44 -78 -125 -124.5t-177 -46.5z" />
    <glyph glyph-name="D" unicode="D" horiz-adv-x="718" 
d="M348 700q143 0 237.5 -101.5t94.5 -248.5t-94.5 -248.5t-237.5 -101.5h-273v700h273zM348 88q107 0 175 75t68 187t-68 187t-175 75h-180v-524h180z" />
    <glyph glyph-name="E" unicode="E" horiz-adv-x="530" 
d="M168 88h325v-88h-418v700h413v-88h-320v-215h295v-87h-295v-222z" />
    <glyph glyph-name="F" unicode="F" horiz-adv-x="516" 
d="M478 612h-310v-227h297v-88h-297v-297h-93v700h403v-88z" />
    <glyph glyph-name="G" unicode="G" horiz-adv-x="788" 
d="M750 347v-42q0 -137 -94 -227.5t-249 -90.5q-160 0 -264.5 105.5t-104.5 257.5t104.5 257.5t262.5 105.5q97 0 178 -46.5t125 -122.5l-80 -47q-30 57 -90.5 91.5t-133.5 34.5q-120 0 -197 -78.5t-77 -194.5t77.5 -194t200.5 -78q105 0 170 51.5t79 133.5h-257v84h350z
" />
    <glyph glyph-name="H" unicode="H" horiz-adv-x="675" 
d="M508 700h92v-700h-92v315h-340v-315h-93v700h93v-297h340v297z" />
    <glyph glyph-name="I" unicode="I" horiz-adv-x="243" 
d="M75 700h93v-700h-93v700z" />
    <glyph glyph-name="J" unicode="J" horiz-adv-x="558" 
d="M257 -13q-76 0 -134 32t-85 93l79 46q31 -80 140 -80q67 0 105 32t38 95v495h92v-495q0 -105 -66.5 -161.5t-168.5 -56.5z" />
    <glyph glyph-name="K" unicode="K" horiz-adv-x="592" 
d="M584 0h-114l-302 336v-336h-93v700h93v-316l292 316h114l-309 -340z" />
    <glyph glyph-name="L" unicode="L" horiz-adv-x="488" 
d="M168 88h302v-88h-395v700h93v-612z" />
    <glyph glyph-name="M" unicode="M" horiz-adv-x="805" 
d="M730 700v-700h-92v547l-229 -381h-12l-229 380v-546h-93v700h105l223 -370l222 370h105z" />
    <glyph glyph-name="N" unicode="N" horiz-adv-x="678" 
d="M510 700h93v-700h-75l-360 523v-523h-93v700h75l360 -522v522z" />
    <glyph glyph-name="O" unicode="O" horiz-adv-x="800" 
d="M400 -13q-152 0 -257 106t-105 257q0 152 105 257.5t257 105.5t257.5 -105.5t105.5 -257.5q0 -151 -105.5 -257t-257.5 -106zM400 78q115 0 192.5 78.5t77.5 193.5q0 116 -77.5 194.5t-192.5 78.5t-192.5 -78.5t-77.5 -194.5q0 -115 77.5 -193.5t192.5 -78.5z" />
    <glyph glyph-name="P" unicode="P" horiz-adv-x="590" 
d="M329 700q97 0 161.5 -64.5t64.5 -160.5q0 -95 -64.5 -160t-161.5 -65h-161v-250h-93v700h254zM329 337q58 0 96 39.5t38 98.5q0 60 -38 99t-96 39h-161v-276h161z" />
    <glyph glyph-name="Q" unicode="Q" horiz-adv-x="805" 
d="M763 350q0 -144 -99 -249l77 -77l-64 -58l-79 80q-91 -59 -198 -59q-150 0 -256 106t-106 257t106 257t256 106t256.5 -106t106.5 -257zM400 78q72 0 132 34l-140 141l64 57l144 -144q70 76 70 184q0 115 -78.5 194t-191.5 79t-191.5 -79t-78.5 -194q0 -114 78.5 -193
t191.5 -79z" />
    <glyph glyph-name="R" unicode="R" horiz-adv-x="611" 
d="M490 0l-157 268h-165v-268h-93v700h280q90 0 154 -63.5t64 -153.5q0 -68 -40.5 -124t-104.5 -79l165 -280h-103zM168 613v-261h187q52 0 88.5 38.5t36.5 92.5t-36.5 92t-88.5 38h-187z" />
    <glyph glyph-name="S" unicode="S" horiz-adv-x="578" 
d="M301 -13q-98 0 -167.5 46t-97.5 126l80 46q41 -127 187 -127q72 0 110 29.5t38 78.5q0 50 -38 75t-127 53q-44 14 -67 22.5t-57.5 26t-51.5 36t-30.5 48.5t-13.5 68q0 91 64 144.5t156 53.5q83 0 144.5 -42t92.5 -111l-78 -45q-45 108 -159 108q-57 0 -92 -28t-35 -76
q0 -46 33 -70t114 -50q29 -9 41 -13t37.5 -14t37.5 -16t32.5 -17t30.5 -21t23.5 -24.5t19.5 -29.5t10.5 -34.5t4.5 -41.5q0 -92 -67 -146.5t-175 -54.5z" />
    <glyph glyph-name="T" unicode="T" horiz-adv-x="540" 
d="M523 700v-88h-207v-612h-92v612h-206v88h505z" />
    <glyph glyph-name="U" unicode="U" horiz-adv-x="658" 
d="M329 -13q-116 0 -189.5 67.5t-73.5 180.5v465h93v-461q0 -74 44 -117.5t126 -43.5t126 43.5t44 117.5v461h92v-465q0 -113 -73 -180.5t-189 -67.5z" />
    <glyph glyph-name="V" unicode="V" horiz-adv-x="621" 
d="M258 0l-250 700h100l203 -584l202 584h101l-251 -700h-105z" />
    <glyph glyph-name="W" unicode="W" horiz-adv-x="1000" 
d="M226 0l-201 700h98l160 -576l170 576h94l170 -576l160 576h98l-201 -700h-108l-166 559l-166 -559h-108z" />
    <glyph glyph-name="X" unicode="X" horiz-adv-x="590" 
d="M573 0h-106l-172 276l-172 -276h-105l225 360l-212 340h105l159 -255l159 255h105l-211 -339z" />
    <glyph glyph-name="Y" unicode="Y" horiz-adv-x="604" 
d="M596 700l-248 -417v-283h-93v284l-247 416h104l190 -328l190 328h104z" />
    <glyph glyph-name="Z" unicode="Z" horiz-adv-x="525" 
d="M149 88h347v-88h-457v81l338 531h-329v88h440v-80z" />
    <glyph glyph-name="bracketleft" unicode="[" horiz-adv-x="290" 
d="M270 716h-125v-732h125v-84h-212v900h212v-84z" />
    <glyph glyph-name="backslash" unicode="\" horiz-adv-x="528" 
d="M438 -100l-400 900h52l400 -900h-52z" />
    <glyph glyph-name="bracketright" unicode="]" horiz-adv-x="290" 
d="M232 800v-900h-212v84h125v732h-125v84h212z" />
    <glyph glyph-name="asciicircum" unicode="^" horiz-adv-x="520" 
d="M299 700l181 -310h-98l-122 212l-122 -212h-98l181 310h78z" />
    <glyph glyph-name="underscore" unicode="_" horiz-adv-x="520" 
d="M38 -151v84h445v-84h-445z" />
    <glyph glyph-name="grave" unicode="`" horiz-adv-x="225" 
d="M205 568l-80 132h-105l101 -132h84z" />
    <glyph glyph-name="a" unicode="a" 
d="M480 500h87v-500h-87v86q-65 -99 -189 -99q-105 0 -179 76.5t-74 186.5t74 186.5t179 76.5q124 0 189 -99v86zM302 71q76 0 127 51.5t51 127.5t-51 127.5t-127 51.5q-75 0 -126 -51.5t-51 -127.5t51 -127.5t126 -51.5z" />
    <glyph glyph-name="b" unicode="b" 
d="M342 513q105 0 179 -76.5t74 -186.5t-74 -186.5t-179 -76.5q-124 0 -189 99v-86h-87v700h87v-286q65 99 189 99zM331 71q75 0 126 51.5t51 127.5t-51 127.5t-126 51.5q-76 0 -127 -51.5t-51 -127.5t51 -127.5t127 -51.5z" />
    <glyph glyph-name="c" unicode="c" horiz-adv-x="547" 
d="M301 -13q-113 0 -188 75.5t-75 187.5t75 187.5t188 75.5q74 0 133 -35.5t88 -95.5l-73 -42q-19 40 -58.5 64t-89.5 24q-75 0 -125.5 -51t-50.5 -127q0 -75 50.5 -126t125.5 -51q50 0 90 23.5t61 63.5l74 -43q-32 -59 -92 -94.5t-133 -35.5z" />
    <glyph glyph-name="d" unicode="d" 
d="M480 700h87v-700h-87v86q-65 -99 -189 -99q-105 0 -179 76.5t-74 186.5t74 186.5t179 76.5q124 0 189 -99v286zM302 71q76 0 127 51.5t51 127.5t-51 127.5t-127 51.5q-75 0 -126 -51.5t-51 -127.5t51 -127.5t126 -51.5z" />
    <glyph glyph-name="e" unicode="e" horiz-adv-x="583" 
d="M127 210q13 -67 61.5 -104t119.5 -37q99 0 144 73l74 -42q-73 -113 -220 -113q-119 0 -193.5 74.5t-74.5 188.5q0 113 73 188t189 75q110 0 179.5 -77.5t69.5 -186.5q0 -19 -3 -39h-419zM300 431q-70 0 -116 -39.5t-57 -105.5h334q-11 71 -56 108t-105 37z" />
    <glyph glyph-name="f" unicode="f" horiz-adv-x="323" 
d="M323 629q-132 11 -132 -114v-15h132v-84h-132v-416h-87v416h-80v84h80v15q0 101 56.5 153t162.5 45v-84z" />
    <glyph glyph-name="g" unicode="g" 
d="M481 500h86v-479q0 -111 -75 -172.5t-180 -61.5q-84 0 -145 31.5t-92 90.5l76 43q41 -84 163 -84q78 0 122.5 41t44.5 112v71q-66 -100 -188 -100q-107 0 -181 76t-74 185t74 184.5t181 75.5q123 0 188 -99v86zM303 75q76 0 127 51t51 127q0 75 -51 126t-127 51t-127 -51
t-51 -126q0 -76 51 -127t127 -51z" />
    <glyph glyph-name="h" unicode="h" horiz-adv-x="564" 
d="M315 513q88 0 141 -55.5t53 -150.5v-307h-87v302q0 61 -33 94.5t-91 33.5q-65 0 -105 -40.5t-40 -124.5v-265h-87v700h87v-272q53 85 162 85z" />
    <glyph glyph-name="i" unicode="i" horiz-adv-x="220" 
d="M110 591q-25 0 -42 17t-17 41t17 41.5t42 17.5q24 0 41 -17.5t17 -41.5t-17 -41t-41 -17zM66 0v500h87v-500h-87z" />
    <glyph glyph-name="j" unicode="j" horiz-adv-x="241" 
d="M132 591q-25 0 -42 17t-17 41t17 41.5t42 17.5q24 0 41 -17.5t17 -41.5t-17 -41t-41 -17zM88 -30v530h87v-530q0 -97 -49 -143.5t-144 -39.5v84q55 -5 80.5 18t25.5 81z" />
    <glyph glyph-name="k" unicode="k" horiz-adv-x="504" 
d="M489 0h-108l-228 237v-237h-87v700h87v-421l216 221h112l-239 -242z" />
    <glyph glyph-name="l" unicode="l" horiz-adv-x="220" 
d="M66 0v730h87v-730h-87z" />
    <glyph glyph-name="m" unicode="m" horiz-adv-x="849" 
d="M606 513q84 0 136 -54.5t52 -147.5v-311h-87v308q0 58 -30 90t-80 32q-56 0 -89.5 -37.5t-33.5 -114.5v-278h-87v308q0 58 -28.5 90t-77.5 32q-55 0 -91.5 -38t-36.5 -114v-278h-87v500h87v-67q51 80 149 80q101 0 147 -85q52 85 157 85z" />
    <glyph glyph-name="n" unicode="n" horiz-adv-x="564" 
d="M315 513q88 0 141 -55.5t53 -150.5v-307h-87v302q0 61 -33 94.5t-91 33.5q-65 0 -105 -40.5t-40 -124.5v-265h-87v500h87v-72q53 85 162 85z" />
    <glyph glyph-name="o" unicode="o" horiz-adv-x="602" 
d="M301 -13q-110 0 -186.5 76t-76.5 187t76.5 187t186.5 76t187 -76t77 -187t-77 -187t-187 -76zM301 72q75 0 126 51t51 127t-51 127t-126 51q-74 0 -125 -51t-51 -127t51 -127t125 -51z" />
    <glyph glyph-name="p" unicode="p" 
d="M342 513q105 0 179 -76.5t74 -186.5t-74 -186.5t-179 -76.5q-124 0 -189 99v-286h-87v700h87v-86q65 99 189 99zM331 71q75 0 126 51.5t51 127.5t-51 127.5t-126 51.5q-76 0 -127 -51.5t-51 -127.5t51 -127.5t127 -51.5z" />
    <glyph glyph-name="q" unicode="q" 
d="M480 500h87v-700h-87v286q-65 -99 -189 -99q-105 0 -179 76.5t-74 186.5t74 186.5t179 76.5q124 0 189 -99v86zM302 71q76 0 127 51.5t51 127.5t-51 127.5t-127 51.5q-75 0 -126 -51.5t-51 -127.5t51 -127.5t126 -51.5z" />
    <glyph glyph-name="r" unicode="r" horiz-adv-x="328" 
d="M153 416q43 93 156 93v-91q-64 3 -110 -34t-46 -119v-265h-87v500h87v-84z" />
    <glyph glyph-name="s" unicode="s" horiz-adv-x="458" 
d="M141 365q0 -29 29 -46.5t70 -28t82 -24t70 -46t29 -83.5q0 -68 -52.5 -109t-134.5 -41q-73 0 -125 32t-74 85l75 43q12 -36 45 -57t79 -21q43 0 71 16.5t28 51.5q0 29 -29 46.5t-70 28t-82 24.5t-70 46t-29 82q0 65 50.5 107t126.5 42q61 0 108.5 -27.5t71.5 -76.5
l-73 -41q-27 64 -107 64q-37 0 -63 -17.5t-26 -49.5z" />
    <glyph glyph-name="t" unicode="t" horiz-adv-x="378" 
d="M338 416h-133v-271q0 -37 14.5 -52.5t44.5 -16t74 1.5v-78q-114 -15 -167 18.5t-53 126.5v271h-99v84h99v114l87 26v-140h133v-84z" />
    <glyph glyph-name="u" unicode="u" horiz-adv-x="564" 
d="M411 500h87v-500h-87v72q-53 -85 -162 -85q-88 0 -141 55.5t-53 150.5v307h87v-302q0 -61 33 -94.5t91 -33.5q65 0 105 40.5t40 124.5v265z" />
    <glyph glyph-name="v" unicode="v" horiz-adv-x="518" 
d="M416 500h94l-200 -500h-102l-200 500h94l157 -407z" />
    <glyph glyph-name="w" unicode="w" horiz-adv-x="770" 
d="M655 500h91l-155 -500h-89l-117 370l-117 -370h-89l-155 500h91l110 -380l118 380h84l118 -381z" />
    <glyph glyph-name="x" unicode="x" horiz-adv-x="515" 
d="M500 0h-102l-140 189l-141 -189h-102l192 257l-181 243h103l129 -174l129 174h102l-180 -242z" />
    <glyph glyph-name="y" unicode="y" horiz-adv-x="515" 
d="M415 500h93l-204 -531q-32 -85 -89.5 -129.5t-132.5 -39.5v81q92 -7 135 102l9 19l-218 498h93l170 -392z" />
    <glyph glyph-name="z" unicode="z" horiz-adv-x="471" 
d="M167 83h266v-83h-385v58l255 359h-245v83h365v-58z" />
    <glyph glyph-name="braceleft" unicode="{" horiz-adv-x="356" 
d="M336 -108q-190 -15 -190 170v161q0 54 -22.5 70.5t-73.5 15.5v84q51 -1 73.5 16t22.5 70v161q0 185 190 170v-84q-55 6 -79 -12.5t-24 -73.5v-161q0 -100 -72 -128q72 -27 72 -128v-161q0 -55 24.5 -73.5t78.5 -12.5v-84z" />
    <glyph glyph-name="bar" unicode="|" horiz-adv-x="237" 
d="M75 -200v920h87v-920h-87z" />
    <glyph glyph-name="braceright" unicode="}" horiz-adv-x="356" 
d="M20 -108v84q54 -6 78.5 12.5t24.5 73.5v161q0 101 72 128q-72 28 -72 128v161q0 55 -24 73.5t-79 12.5v84q190 15 190 -170v-161q0 -53 22.5 -70t73.5 -16v-84q-51 1 -73.5 -15.5t-22.5 -70.5v-161q0 -185 -190 -170z" />
    <glyph glyph-name="asciitilde" unicode="~" horiz-adv-x="596" 
d="M466 424l75 -36q-26 -89 -90.5 -111.5t-161.5 31.5q-76 41 -109 32.5t-50 -64.5l-75 35q26 89 91.5 111.5t159.5 -30.5q78 -42 110.5 -33.5t49.5 65.5z" />
    <glyph glyph-name="exclamdown" unicode="&#xa1;" horiz-adv-x="243" 
d="M121 511q28 0 46.5 -19t18.5 -46t-18.5 -46t-46.5 -19q-27 0 -46 19t-19 46t19 46t46 19zM88 295h67l19 -295v-200h-105v200z" />
    <glyph glyph-name="cent" unicode="&#xa2;" horiz-adv-x="547" 
d="M452 260l74 -43q-32 -59 -92 -94.5t-133 -35.5q-33 0 -65 8l-31 -95h-53l36 111q-69 31 -109.5 95t-40.5 144q0 112 75 187.5t188 75.5q27 0 48 -4l29 91h53l-34 -105q86 -32 125 -113l-73 -42q-25 51 -78 74l-109 -337q17 -4 39 -4q50 0 90 23.5t61 63.5zM125 350
q0 -51 24 -92t66 -64l107 333q-7 1 -21 1q-75 0 -125.5 -51t-50.5 -127z" />
    <glyph glyph-name="sterling" unicode="&#xa3;" horiz-adv-x="584" 
d="M217 90h353v-90h-532v90h87v194h-70v82h70v134q0 103 62.5 158t147.5 55q71 0 122 -36.5t77 -101.5l-77 -44q-33 92 -121 92q-51 0 -85 -31.5t-34 -93.5v-132h222v-82h-222v-194z" />
    <glyph glyph-name="currency" unicode="&#xa4;" horiz-adv-x="549" 
d="M488 350q0 -76 -46 -133l70 -70l-34 -34l-71 71q-56 -45 -132 -45q-75 0 -133 44l-70 -70l-34 34l69 70q-46 57 -46 133t46 133l-69 70l34 34l70 -70q57 45 133 45q74 0 132 -45l71 70l34 -34l-70 -70q46 -57 46 -133zM275 222q54 0 90.5 37t36.5 91q0 55 -36.5 91.5
t-90.5 36.5q-55 0 -91 -36.5t-36 -91.5q0 -54 36.5 -91t90.5 -37z" />
    <glyph glyph-name="yen" unicode="&#xa5;" horiz-adv-x="584" 
d="M596 700l-207 -348h123v-65h-161l-3 -4v-51h164v-66h-164v-166h-93v166h-183v66h183v52l-2 3h-181v65h143l-207 348h104l190 -328l190 328h104z" />
    <glyph glyph-name="brokenbar" unicode="&#xa6;" horiz-adv-x="237" 
d="M75 350v370h87v-370h-87zM75 -200v370h87v-370h-87z" />
    <glyph glyph-name="section" unicode="&#xa7;" horiz-adv-x="521" 
d="M482 269q0 -76 -63 -124q41 -43 41 -102q0 -69 -52 -112t-135 -43q-162 0 -213 131l75 43q31 -94 138 -94q45 0 72.5 19.5t27.5 55.5q0 9 -2.5 18t-9 17t-12.5 14t-17.5 13.5t-19 12t-23.5 11.5t-24.5 10.5t-26.5 11.5t-26 11q-72 29 -114 68.5t-42 103.5q0 75 68 125
q-37 40 -37 100q0 68 51 111t127 43q65 0 114 -32t73 -90l-71 -40q-33 81 -116 81q-38 0 -64.5 -19.5t-26.5 -53.5q0 -19 10 -34.5t30 -28.5t40.5 -23t50.5 -23q13 -5 19 -8q74 -32 116 -70.5t42 -102.5zM143 337q0 -36 27.5 -60t77.5 -43q80 -30 107 -44q40 30 40 74
q0 38 -28 61t-81 45q-81 32 -100 42q-43 -28 -43 -75z" />
    <glyph glyph-name="dieresis" unicode="&#xa8;" horiz-adv-x="335" 
d="M73 566q-22 0 -37.5 15.5t-15.5 37.5t15.5 37t37.5 15t37 -15t15 -37t-15 -37.5t-37 -15.5zM263 566q-22 0 -37.5 15.5t-15.5 37.5t15.5 37t37.5 15t37 -15t15 -37t-15 -37.5t-37 -15.5z" />
    <glyph glyph-name="copyright" unicode="&#xa9;" horiz-adv-x="799" 
d="M400 -12q-150 0 -256 106t-106 256t106 256t256 106t256 -106t106 -256t-106 -256t-256 -106zM400 18q136 0 232.5 97t96.5 235t-96.5 235t-232.5 97q-137 0 -233.5 -97t-96.5 -235t96.5 -235t233.5 -97zM403 157q-82 0 -139 56.5t-57 136.5t57 136.5t139 56.5
q53 0 97 -25t68 -69l-69 -40q-26 56 -97 56q-51 0 -82.5 -34t-31.5 -81t31.5 -81t82.5 -34q32 0 59 15t39 42l69 -41q-24 -43 -68.5 -68.5t-97.5 -25.5z" />
    <glyph glyph-name="guillemotleft" unicode="&#xab;" horiz-adv-x="510" 
d="M272 492l-110 -183l110 -182h-94l-110 182l110 183h94zM442 492l-110 -183l110 -182h-94l-110 182l110 183h94z" />
    <glyph glyph-name="logicalnot" unicode="&#xac;" horiz-adv-x="530" 
d="M55 392h420v-200h-87v117h-333v83z" />
    <glyph glyph-name="registered" unicode="&#xae;" horiz-adv-x="799" 
d="M400 712q150 0 256 -106t106 -256t-106 -256t-256 -106t-256 106t-106 256t106 256t256 106zM400 18q136 0 232.5 97t96.5 235t-96.5 235t-232.5 97q-137 0 -233.5 -97t-96.5 -235t96.5 -235t233.5 -97zM547 415q0 -78 -63 -109l77 -141h-84l-65 125h-6h-48v-125h-77v370
h125q65 0 103 -34.5t38 -85.5zM358 463v-103h48q30 0 47 14t17 37q0 52 -64 52h-48z" />
    <glyph glyph-name="macron" unicode="&#xaf;" horiz-adv-x="310" 
d="M20 575v73h270v-73h-270z" />
    <glyph glyph-name="degree" unicode="&#xb0;" horiz-adv-x="391" 
d="M196 500q-68 0 -113 45t-45 110t45 110t113 45t113 -45t45 -110t-44.5 -110t-113.5 -45zM196 575q35 0 57 23t22 57t-22 57t-57 23t-57 -23t-22 -57t22 -57t57 -23z" />
    <glyph glyph-name="plusminus" unicode="&#xb1;" horiz-adv-x="545" 
d="M314 465h174v-83h-174v-157h-83v157h-173v83h173v158h83v-158zM58 78v83h430v-83h-430z" />
    <glyph glyph-name="acute" unicode="&#xb4;" horiz-adv-x="225" 
d="M20 568h84l101 132h-105z" />
    <glyph glyph-name="uni00B5" unicode="&#xb5;" horiz-adv-x="610" 
d="M544 83h38v-83h-51q-78 0 -102 67q-52 -80 -159 -80q-72 0 -117 39v-226h-87v700h87v-301q0 -62 33 -95.5t91 -33.5q65 0 105 40.5t40 124.5v265h87v-382q0 -16 9.5 -25.5t25.5 -9.5z" />
    <glyph glyph-name="paragraph" unicode="&#xb6;" horiz-adv-x="610" 
d="M568 700v-79h-61v-821h-83v821h-101v-821h-83v490q-85 0 -145 60t-60 145t59.5 145t145.5 60h328z" />
    <glyph glyph-name="periodcentered" unicode="&#xb7;" horiz-adv-x="243" 
d="M121 284q-27 0 -46 19t-19 46t19 46t46 19q28 0 46.5 -19t18.5 -46t-18.5 -46t-46.5 -19z" />
    <glyph glyph-name="cedilla" unicode="&#xb8;" horiz-adv-x="250" 
d="M145 -45q38 -8 61.5 -29t23.5 -51q0 -103 -210 -91v66q134 -10 134 31q0 31 -83 36v83h74v-45z" />
    <glyph glyph-name="guillemotright" unicode="&#xbb;" horiz-adv-x="510" 
d="M162 492l110 -183l-110 -182h-94l110 182l-110 183h94zM332 492l110 -183l-110 -182h-94l110 182l-110 183h94z" />
    <glyph glyph-name="onequarter" unicode="&#xbc;" horiz-adv-x="819" 
d="M192 300h-77v319l-88 -26l-19 65l117 42h67v-400zM524 700h70l-400 -700h-70zM800 142v-71h-47v-71h-76v71h-199v71l142 258h83l-140 -258h114v88h76v-88h47z" />
    <glyph glyph-name="onehalf" unicode="&#xbd;" horiz-adv-x="809" 
d="M192 300h-77v319l-88 -26l-19 65l117 42h67v-400zM524 700h70l-400 -700h-70zM607 72h172v-72h-286v57l162 153q39 36 39 77q0 24 -16.5 38.5t-44.5 14.5q-55 0 -79 -58l-64 36q40 95 143 95q61 0 100 -35.5t39 -88.5q0 -67 -64 -126z" />
    <glyph glyph-name="threequarters" unicode="&#xbe;" horiz-adv-x="916" 
d="M316 418q0 -60 -40.5 -95.5t-108.5 -35.5q-107 0 -147 86l65 37q22 -51 82 -51q35 0 53.5 16t18.5 43t-20 43.5t-53 16.5h-9l-34 50l84 100h-172v72h263v-66l-84 -100q48 -10 75 -40.5t27 -75.5zM621 700h70l-400 -700h-70zM897 142v-71h-47v-71h-76v71h-199v71l142 258
h83l-140 -258h114v88h76v-88h47z" />
    <glyph glyph-name="questiondown" unicode="&#xbf;" horiz-adv-x="539" 
d="M288 511q27 0 46 -19t19 -46t-19 -46t-46 -19q-28 0 -46.5 19t-18.5 46t18.5 46t46.5 19zM334 295q0 -44 -19 -82t-46 -65t-54 -51.5t-46 -54t-19 -62.5q0 -50 34.5 -76.5t89.5 -26.5q110 0 141 97l79 -44q-25 -70 -85 -106.5t-136 -36.5q-89 0 -152.5 50t-63.5 139
q0 42 19 79t46 64t54 52.5t46 57t19 66.5h93z" />
    <glyph glyph-name="Agrave" unicode="&#xc0;" horiz-adv-x="643" 
d="M388 768h-84l-101 132h105zM536 0l-57 157h-315l-57 -157h-99l261 700h105l261 -700h-99zM196 244h251l-126 345z" />
    <glyph glyph-name="Aacute" unicode="&#xc1;" horiz-adv-x="643" 
d="M446 900l-101 -132h-84l80 132h105zM536 0l-57 157h-315l-57 -157h-99l261 700h105l261 -700h-99zM196 244h251l-126 345z" />
    <glyph glyph-name="Acircumflex" unicode="&#xc2;" horiz-adv-x="643" 
d="M320 846l-61 -81h-93l106 135h96l106 -135h-93zM536 0l-57 157h-315l-57 -157h-99l261 700h105l261 -700h-99zM196 244h251l-126 345z" />
    <glyph glyph-name="Atilde" unicode="&#xc3;" horiz-adv-x="643" 
d="M316 797q-36 30 -54 27.5t-18 -51.5h-73q0 64 23.5 96.5t58 31t72.5 -28.5q37 -30 54.5 -27.5t17.5 50.5h73q0 -64 -23 -96t-57.5 -30.5t-73.5 28.5zM536 0l-57 157h-315l-57 -157h-99l261 700h105l261 -700h-99zM196 244h251l-126 345z" />
    <glyph glyph-name="Adieresis" unicode="&#xc4;" horiz-adv-x="643" 
d="M226 766q-22 0 -37.5 15.5t-15.5 37.5t15.5 37t37.5 15t37 -15t15 -37t-15 -37.5t-37 -15.5zM416 766q-22 0 -37.5 15.5t-15.5 37.5t15.5 37t37.5 15t37 -15t15 -37t-15 -37.5t-37 -15.5zM536 0l-57 157h-315l-57 -157h-99l261 700h105l261 -700h-99zM196 244h251
l-126 345z" />
    <glyph glyph-name="Aring" unicode="&#xc5;" horiz-adv-x="643" 
d="M536 0l-57 157h-315l-57 -157h-99l251 673q-50 29 -50 90q0 46 31.5 76t81.5 30t81.5 -30t31.5 -76q0 -62 -51 -91l251 -672h-99zM322 808q-22 0 -34.5 -13t-12.5 -32q0 -20 12.5 -33t34.5 -13q23 0 35.5 13t12.5 33t-12.5 32.5t-35.5 12.5zM196 244h251l-126 345z" />
    <glyph glyph-name="AE" unicode="&#xc6;" horiz-adv-x="880" 
d="M541 88h302v-88h-393v157h-250l-95 -157h-105l424 700h414v-88h-297v-215h279v-87h-279v-222zM252 244h198v328z" />
    <glyph glyph-name="Ccedilla" unicode="&#xc7;" horiz-adv-x="739" 
d="M404 78q72 0 131.5 34.5t89.5 91.5l81 -46q-39 -70 -109.5 -115.5t-155.5 -53.5v-34q38 -8 61.5 -29t23.5 -51q0 -103 -210 -91v66q134 -10 134 31q0 31 -83 36v72q-144 13 -236.5 115.5t-92.5 245.5q0 153 103.5 258t262.5 105q96 0 176.5 -46t125.5 -124l-81 -47
q-30 58 -89.5 92.5t-131.5 34.5q-121 0 -197.5 -78t-76.5 -195q0 -116 76.5 -194t197.5 -78z" />
    <glyph glyph-name="Egrave" unicode="&#xc8;" horiz-adv-x="530" 
d="M349 768h-84l-101 132h105zM168 88h325v-88h-418v700h413v-88h-320v-215h295v-87h-295v-222z" />
    <glyph glyph-name="Eacute" unicode="&#xc9;" horiz-adv-x="530" 
d="M407 900l-101 -132h-84l80 132h105zM168 88h325v-88h-418v700h413v-88h-320v-215h295v-87h-295v-222z" />
    <glyph glyph-name="Ecircumflex" unicode="&#xca;" horiz-adv-x="530" 
d="M281 846l-61 -81h-93l106 135h96l106 -135h-93zM168 88h325v-88h-418v700h413v-88h-320v-215h295v-87h-295v-222z" />
    <glyph glyph-name="Edieresis" unicode="&#xcb;" horiz-adv-x="530" 
d="M187 766q-22 0 -37.5 15.5t-15.5 37.5t15.5 37t37.5 15t37 -15t15 -37t-15 -37.5t-37 -15.5zM377 766q-22 0 -37.5 15.5t-15.5 37.5t15.5 37t37.5 15t37 -15t15 -37t-15 -37.5t-37 -15.5zM168 88h325v-88h-418v700h413v-88h-320v-215h295v-87h-295v-222z" />
    <glyph glyph-name="Igrave" unicode="&#xcc;" horiz-adv-x="243" 
d="M188 768l-80 132h-105l101 -132h84zM75 700h93v-700h-93v700z" />
    <glyph glyph-name="Iacute" unicode="&#xcd;" horiz-adv-x="243" 
d="M61 768h84l101 132h-105zM75 700h93v-700h-93v700z" />
    <glyph glyph-name="Icircumflex" unicode="&#xce;" horiz-adv-x="243" 
d="M168 900l106 -135h-93l-61 81l-61 -81h-93l106 135h96zM75 0v700h93v-700h-93z" />
    <glyph glyph-name="Idieresis" unicode="&#xcf;" horiz-adv-x="243" 
d="M26 766q-22 0 -37.5 15.5t-15.5 37.5t15.5 37t37.5 15t37 -15t15 -37t-15 -37.5t-37 -15.5zM216 766q-22 0 -37.5 15.5t-15.5 37.5t15.5 37t37.5 15t37 -15t15 -37t-15 -37.5t-37 -15.5zM75 700h93v-700h-93v700z" />
    <glyph glyph-name="Eth" unicode="&#xd0;" horiz-adv-x="743" 
d="M373 700q143 0 237.5 -101.5t94.5 -248.5t-94.5 -248.5t-237.5 -101.5h-273v306h-73v84h73v310h273zM373 88q107 0 175 75t68 187t-68 187t-175 75h-180v-222h199v-84h-199v-218h180z" />
    <glyph glyph-name="Ntilde" unicode="&#xd1;" horiz-adv-x="678" 
d="M186 773q0 64 23.5 96.5t58 31t72.5 -28.5q37 -30 54.5 -27.5t17.5 50.5h73q0 -64 -23 -96t-57.5 -30.5t-73.5 28.5q-36 30 -54 27.5t-18 -51.5h-73zM510 700h93v-700h-75l-360 523v-523h-93v700h75l360 -522v522z" />
    <glyph glyph-name="Ograve" unicode="&#xd2;" horiz-adv-x="800" 
d="M467 771l-80 132h-105l101 -132h84zM400 -13q-152 0 -257 106t-105 257q0 152 105 257.5t257 105.5t257.5 -105.5t105.5 -257.5q0 -151 -105.5 -257t-257.5 -106zM400 78q115 0 192.5 78.5t77.5 193.5q0 116 -77.5 194.5t-192.5 78.5t-192.5 -78.5t-77.5 -194.5
q0 -115 77.5 -193.5t192.5 -78.5z" />
    <glyph glyph-name="Oacute" unicode="&#xd3;" horiz-adv-x="800" 
d="M340 771h84l101 132h-105zM400 -13q-152 0 -257 106t-105 257q0 152 105 257.5t257 105.5t257.5 -105.5t105.5 -257.5q0 -151 -105.5 -257t-257.5 -106zM400 78q115 0 192.5 78.5t77.5 193.5q0 116 -77.5 194.5t-192.5 78.5t-192.5 -78.5t-77.5 -194.5
q0 -115 77.5 -193.5t192.5 -78.5z" />
    <glyph glyph-name="Ocircumflex" unicode="&#xd4;" horiz-adv-x="800" 
d="M399 849l-61 -81h-93l106 135h96l106 -135h-93zM400 713q152 0 257.5 -105.5t105.5 -257.5q0 -151 -105.5 -257t-257.5 -106t-257 106t-105 257q0 152 105 257.5t257 105.5zM400 78q115 0 192.5 78.5t77.5 193.5q0 116 -77.5 194.5t-192.5 78.5t-192.5 -78.5
t-77.5 -194.5q0 -115 77.5 -193.5t192.5 -78.5z" />
    <glyph glyph-name="Otilde" unicode="&#xd5;" horiz-adv-x="800" 
d="M250 776q0 64 23.5 96.5t58 31t72.5 -28.5q37 -30 54.5 -27.5t17.5 50.5h73q0 -64 -23 -96t-57.5 -30.5t-73.5 28.5q-36 30 -54 27.5t-18 -51.5h-73zM400 -13q-152 0 -257 106t-105 257q0 152 105 257.5t257 105.5t257.5 -105.5t105.5 -257.5q0 -151 -105.5 -257
t-257.5 -106zM400 78q115 0 192.5 78.5t77.5 193.5q0 116 -77.5 194.5t-192.5 78.5t-192.5 -78.5t-77.5 -194.5q0 -115 77.5 -193.5t192.5 -78.5z" />
    <glyph glyph-name="Odieresis" unicode="&#xd6;" horiz-adv-x="800" 
d="M305 769q-22 0 -37.5 15.5t-15.5 37.5t15.5 37t37.5 15t37 -15t15 -37t-15 -37.5t-37 -15.5zM495 769q-22 0 -37.5 15.5t-15.5 37.5t15.5 37t37.5 15t37 -15t15 -37t-15 -37.5t-37 -15.5zM400 -13q-152 0 -257 106t-105 257q0 152 105 257.5t257 105.5t257.5 -105.5
t105.5 -257.5q0 -151 -105.5 -257t-257.5 -106zM400 78q115 0 192.5 78.5t77.5 193.5q0 116 -77.5 194.5t-192.5 78.5t-192.5 -78.5t-77.5 -194.5q0 -115 77.5 -193.5t192.5 -78.5z" />
    <glyph glyph-name="multiply" unicode="&#xd7;" horiz-adv-x="485" 
d="M435 485l-135 -135l135 -135l-59 -56l-133 134l-134 -134l-59 56l135 135l-135 135l59 56l134 -133l133 133z" />
    <glyph glyph-name="Oslash" unicode="&#xd8;" horiz-adv-x="809" 
d="M667 607q105 -105 105 -257q0 -151 -105.5 -257t-257.5 -106q-115 0 -210 66l-49 -57l-54 32l55 66q-104 106 -104 256q0 152 105 257.5t257 105.5q118 0 211 -66l48 57l54 -31zM139 350q0 -110 71 -187l351 415q-69 45 -152 45q-115 0 -192.5 -78.5t-77.5 -194.5z
M409 78q115 0 192.5 78.5t77.5 193.5q0 109 -71 188l-351 -415q67 -45 152 -45z" />
    <glyph glyph-name="Ugrave" unicode="&#xd9;" horiz-adv-x="658" 
d="M396 768l-80 132h-105l101 -132h84zM329 -13q-116 0 -189.5 67.5t-73.5 180.5v465h93v-461q0 -74 44 -117.5t126 -43.5t126 43.5t44 117.5v461h92v-465q0 -113 -73 -180.5t-189 -67.5z" />
    <glyph glyph-name="Uacute" unicode="&#xda;" horiz-adv-x="658" 
d="M269 768h84l101 132h-105zM329 -13q-116 0 -189.5 67.5t-73.5 180.5v465h93v-461q0 -74 44 -117.5t126 -43.5t126 43.5t44 117.5v461h92v-465q0 -113 -73 -180.5t-189 -67.5z" />
    <glyph glyph-name="Ucircumflex" unicode="&#xdb;" horiz-adv-x="658" 
d="M328 846l-61 -81h-93l106 135h96l106 -135h-93zM499 700h92v-465q0 -113 -73 -180.5t-189 -67.5t-189.5 67.5t-73.5 180.5v465h93v-461q0 -74 44 -117.5t126 -43.5t126 43.5t44 117.5v461z" />
    <glyph glyph-name="Udieresis" unicode="&#xdc;" horiz-adv-x="658" 
d="M234 766q-22 0 -37.5 15.5t-15.5 37.5t15.5 37t37.5 15t37 -15t15 -37t-15 -37.5t-37 -15.5zM424 766q-22 0 -37.5 15.5t-15.5 37.5t15.5 37t37.5 15t37 -15t15 -37t-15 -37.5t-37 -15.5zM329 -13q-116 0 -189.5 67.5t-73.5 180.5v465h93v-461q0 -74 44 -117.5t126 -43.5
t126 43.5t44 117.5v461h92v-465q0 -113 -73 -180.5t-189 -67.5z" />
    <glyph glyph-name="Yacute" unicode="&#xdd;" horiz-adv-x="604" 
d="M424 900l-101 -132h-84l80 132h105zM596 700l-248 -417v-283h-93v284l-247 416h104l190 -328l190 328h104z" />
    <glyph glyph-name="Thorn" unicode="&#xde;" horiz-adv-x="590" 
d="M330 575q96 0 160.5 -64.5t64.5 -160.5q0 -95 -64.5 -160t-160.5 -65h-162v-125h-93v700h93v-125h162zM330 212q57 0 95 39.5t38 98.5q0 60 -38 99t-95 39h-162v-276h162z" />
    <glyph glyph-name="germandbls" unicode="&#xdf;" horiz-adv-x="523" 
d="M286 -4v78q131 -9 131 76q0 29 -21 63t-46.5 60.5t-46.5 59.5t-21 60q0 29 39.5 77t39.5 77q0 39 -26 61.5t-69 22.5q-48 0 -80.5 -28.5t-32.5 -89.5v-513h-87v513q0 93 56 146.5t146 53.5q83 0 131.5 -46t48.5 -113q0 -34 -19.5 -64.5t-39 -54.5t-19.5 -40
q0 -21 21 -49.5t46 -54t46 -66.5t21 -83q0 -73 -55 -114t-163 -32z" />
    <glyph glyph-name="agrave" unicode="&#xe0;" 
d="M373 568h-84l-101 132h105zM480 500h87v-500h-87v86q-65 -99 -189 -99q-105 0 -179 76.5t-74 186.5t74 186.5t179 76.5q124 0 189 -99v86zM302 71q76 0 127 51.5t51 127.5t-51 127.5t-127 51.5q-75 0 -126 -51.5t-51 -127.5t51 -127.5t126 -51.5z" />
    <glyph glyph-name="aacute" unicode="&#xe1;" 
d="M431 700l-101 -132h-84l80 132h105zM480 500h87v-500h-87v86q-65 -99 -189 -99q-105 0 -179 76.5t-74 186.5t74 186.5t179 76.5q124 0 189 -99v86zM302 71q76 0 127 51.5t51 127.5t-51 127.5t-127 51.5q-75 0 -126 -51.5t-51 -127.5t51 -127.5t126 -51.5z" />
    <glyph glyph-name="acircumflex" unicode="&#xe2;" 
d="M305 646l-61 -81h-93l106 135h96l106 -135h-93zM480 500h87v-500h-87v86q-65 -99 -189 -99q-105 0 -179 76.5t-74 186.5t74 186.5t179 76.5q124 0 189 -99v86zM302 71q76 0 127 51.5t51 127.5t-51 127.5t-127 51.5q-75 0 -126 -51.5t-51 -127.5t51 -127.5t126 -51.5z" />
    <glyph glyph-name="atilde" unicode="&#xe3;" 
d="M301 597q-36 30 -54 27.5t-18 -51.5h-73q0 64 23.5 96.5t58 31t72.5 -28.5q37 -30 54.5 -27.5t17.5 50.5h73q0 -64 -23 -96t-57.5 -30.5t-73.5 28.5zM480 500h87v-500h-87v86q-65 -99 -189 -99q-105 0 -179 76.5t-74 186.5t74 186.5t179 76.5q124 0 189 -99v86zM302 71
q76 0 127 51.5t51 127.5t-51 127.5t-127 51.5q-75 0 -126 -51.5t-51 -127.5t51 -127.5t126 -51.5z" />
    <glyph glyph-name="adieresis" unicode="&#xe4;" 
d="M211 566q-22 0 -37.5 15.5t-15.5 37.5t15.5 37t37.5 15t37 -15t15 -37t-15 -37.5t-37 -15.5zM401 566q-22 0 -37.5 15.5t-15.5 37.5t15.5 37t37.5 15t37 -15t15 -37t-15 -37.5t-37 -15.5zM480 500h87v-500h-87v86q-65 -99 -189 -99q-105 0 -179 76.5t-74 186.5t74 186.5
t179 76.5q124 0 189 -99v86zM302 71q76 0 127 51.5t51 127.5t-51 127.5t-127 51.5q-75 0 -126 -51.5t-51 -127.5t51 -127.5t126 -51.5z" />
    <glyph glyph-name="aring" unicode="&#xe5;" 
d="M306 546q-50 0 -81.5 30.5t-31.5 76.5t31.5 76t81.5 30t81.5 -30t31.5 -76t-31.5 -76.5t-81.5 -30.5zM306 698q-22 0 -34.5 -13t-12.5 -32q0 -20 12.5 -33t34.5 -13q23 0 35.5 13t12.5 33t-12.5 32.5t-35.5 12.5zM480 500h87v-500h-87v86q-65 -99 -189 -99
q-105 0 -179 76.5t-74 186.5t74 186.5t179 76.5q124 0 189 -99v86zM302 71q76 0 127 51.5t51 127.5t-51 127.5t-127 51.5q-75 0 -126 -51.5t-51 -127.5t51 -127.5t126 -51.5z" />
    <glyph glyph-name="ae" unicode="&#xe6;" horiz-adv-x="1024" 
d="M570 210q12 -67 59.5 -104t116.5 -37q102 0 147 73l74 -42q-73 -113 -210 -113q-130 0 -193 98v-85h-84v86q-65 -99 -189 -99q-105 0 -179 76.5t-74 186.5t74 186.5t179 76.5q124 0 189 -99v86h84v-85q64 98 187 98q111 0 175 -76.5t64 -187.5q0 -19 -3 -39h-417z
M742 431q-71 0 -116.5 -39t-55.5 -105h332q-10 70 -54.5 107t-105.5 37zM302 71q76 0 127 51.5t51 127.5t-51 127.5t-127 51.5q-75 0 -126 -51.5t-51 -127.5t51 -127.5t126 -51.5z" />
    <glyph glyph-name="ccedilla" unicode="&#xe7;" horiz-adv-x="547" 
d="M526 117q-28 -51 -77.5 -85t-110.5 -42v-35q38 -8 61.5 -29t23.5 -51q0 -103 -210 -91v66q134 -10 134 31q0 31 -83 36v72q-99 13 -162.5 86t-63.5 175q0 112 75 187.5t188 75.5q74 0 133 -35.5t88 -95.5l-73 -42q-19 40 -58.5 64t-89.5 24q-75 0 -125.5 -51t-50.5 -127
q0 -75 50.5 -126t125.5 -51q50 0 90 23.5t61 63.5z" />
    <glyph glyph-name="egrave" unicode="&#xe8;" horiz-adv-x="583" 
d="M361 569h-84l-101 132h105zM127 210q13 -67 61.5 -104t119.5 -37q99 0 144 73l74 -42q-73 -113 -220 -113q-119 0 -193.5 74.5t-74.5 188.5q0 113 73 188t189 75q110 0 179.5 -77.5t69.5 -186.5q0 -19 -3 -39h-419zM300 431q-70 0 -116 -39.5t-57 -105.5h334
q-11 71 -56 108t-105 37z" />
    <glyph glyph-name="eacute" unicode="&#xe9;" horiz-adv-x="583" 
d="M419 701l-101 -132h-84l80 132h105zM127 210q13 -67 61.5 -104t119.5 -37q99 0 144 73l74 -42q-73 -113 -220 -113q-119 0 -193.5 74.5t-74.5 188.5q0 113 73 188t189 75q110 0 179.5 -77.5t69.5 -186.5q0 -19 -3 -39h-419zM300 431q-70 0 -116 -39.5t-57 -105.5h334
q-11 71 -56 108t-105 37z" />
    <glyph glyph-name="ecircumflex" unicode="&#xea;" horiz-adv-x="583" 
d="M293 647l-61 -81h-93l106 135h96l106 -135h-93zM127 210q13 -67 61.5 -104t119.5 -37q99 0 144 73l74 -42q-73 -113 -220 -113q-119 0 -193.5 74.5t-74.5 188.5q0 113 73 188t189 75q110 0 179.5 -77.5t69.5 -186.5q0 -19 -3 -39h-419zM300 431q-70 0 -116 -39.5
t-57 -105.5h334q-11 71 -56 108t-105 37z" />
    <glyph glyph-name="edieresis" unicode="&#xeb;" horiz-adv-x="583" 
d="M199 567q-22 0 -37.5 15.5t-15.5 37.5t15.5 37t37.5 15t37 -15t15 -37t-15 -37.5t-37 -15.5zM389 567q-22 0 -37.5 15.5t-15.5 37.5t15.5 37t37.5 15t37 -15t15 -37t-15 -37.5t-37 -15.5zM127 210q13 -67 61.5 -104t119.5 -37q99 0 144 73l74 -42q-73 -113 -220 -113
q-119 0 -193.5 74.5t-74.5 188.5q0 113 73 188t189 75q110 0 179.5 -77.5t69.5 -186.5q0 -19 -3 -39h-419zM300 431q-70 0 -116 -39.5t-57 -105.5h334q-11 71 -56 108t-105 37z" />
    <glyph glyph-name="igrave" unicode="&#xec;" horiz-adv-x="220" 
d="M151 565l-48 135h-102l66 -135h84zM153 0h-87v500h87v-500z" />
    <glyph glyph-name="iacute" unicode="&#xed;" horiz-adv-x="220" 
d="M69 565h84l66 135h-103zM66 0v500h87v-500h-87z" />
    <glyph glyph-name="icircumflex" unicode="&#xee;" horiz-adv-x="220" 
d="M158 700l88 -135h-92l-44 70l-44 -70h-93l89 135h96zM66 0v500h87v-500h-87z" />
    <glyph glyph-name="idieresis" unicode="&#xef;" horiz-adv-x="220" 
d="M35 568q-22 0 -37.5 15t-15.5 37t15.5 37.5t37.5 15.5t37 -15.5t15 -37.5t-15 -37t-37 -15zM185 568q-22 0 -37.5 15t-15.5 37t15.5 37.5t37.5 15.5t37 -15.5t15 -37.5t-15 -37t-37 -15zM66 0v500h87v-500h-87z" />
    <glyph glyph-name="eth" unicode="&#xf0;" horiz-adv-x="581" 
d="M498 370q46 -65 46 -140q0 -108 -74.5 -175t-178.5 -67t-178.5 67t-74.5 175q0 105 76.5 172t178.5 59q25 -2 38 -5l-75 102l-118 -67v70l81 46l-68 93h101l39 -52l114 65v-70l-78 -44zM291 71q69 0 117.5 43.5t48.5 115.5q0 56 -27 92q-48 63 -138 63q-73 0 -120 -42.5
t-47 -112.5q0 -72 48 -115.5t118 -43.5z" />
    <glyph glyph-name="ntilde" unicode="&#xf1;" horiz-adv-x="564" 
d="M288 600q-36 30 -54 27.5t-18 -51.5h-73q0 64 23.5 96.5t58 31t72.5 -28.5q37 -30 54.5 -27.5t17.5 50.5h73q0 -64 -23 -96t-57.5 -30.5t-73.5 28.5zM315 513q88 0 141 -55.5t53 -150.5v-307h-87v302q0 61 -33 94.5t-91 33.5q-65 0 -105 -40.5t-40 -124.5v-265h-87v500
h87v-72q53 85 162 85z" />
    <glyph glyph-name="ograve" unicode="&#xf2;" horiz-adv-x="602" 
d="M368 571l-80 132h-105l101 -132h84zM301 -13q-110 0 -186.5 76t-76.5 187t76.5 187t186.5 76t187 -76t77 -187t-77 -187t-187 -76zM301 72q75 0 126 51t51 127t-51 127t-126 51q-74 0 -125 -51t-51 -127t51 -127t125 -51z" />
    <glyph glyph-name="oacute" unicode="&#xf3;" horiz-adv-x="602" 
d="M241 571h84l101 132h-105zM301 -13q-110 0 -186.5 76t-76.5 187t76.5 187t186.5 76t187 -76t77 -187t-77 -187t-187 -76zM301 72q75 0 126 51t51 127t-51 127t-126 51q-74 0 -125 -51t-51 -127t51 -127t125 -51z" />
    <glyph glyph-name="ocircumflex" unicode="&#xf4;" horiz-adv-x="602" 
d="M300 649l-61 -81h-93l106 135h96l106 -135h-93zM301 513q110 0 187 -76t77 -187t-77 -187t-187 -76t-186.5 76t-76.5 187t76.5 187t186.5 76zM301 72q75 0 126 51t51 127t-51 127t-126 51q-74 0 -125 -51t-51 -127t51 -127t125 -51z" />
    <glyph glyph-name="otilde" unicode="&#xf5;" horiz-adv-x="602" 
d="M151 576q0 64 23.5 96.5t58 31t72.5 -28.5q37 -30 54.5 -27.5t17.5 50.5h73q0 -64 -23 -96t-57.5 -30.5t-73.5 28.5q-36 30 -54 27.5t-18 -51.5h-73zM301 -13q-110 0 -186.5 76t-76.5 187t76.5 187t186.5 76t187 -76t77 -187t-77 -187t-187 -76zM301 72q75 0 126 51
t51 127t-51 127t-126 51q-74 0 -125 -51t-51 -127t51 -127t125 -51z" />
    <glyph glyph-name="odieresis" unicode="&#xf6;" horiz-adv-x="602" 
d="M206 569q-22 0 -37.5 15.5t-15.5 37.5t15.5 37t37.5 15t37 -15t15 -37t-15 -37.5t-37 -15.5zM396 569q-22 0 -37.5 15.5t-15.5 37.5t15.5 37t37.5 15t37 -15t15 -37t-15 -37.5t-37 -15.5zM301 -13q-110 0 -186.5 76t-76.5 187t76.5 187t186.5 76t187 -76t77 -187
t-77 -187t-187 -76zM301 72q75 0 126 51t51 127t-51 127t-126 51q-74 0 -125 -51t-51 -127t51 -127t125 -51z" />
    <glyph glyph-name="divide" unicode="&#xf7;" horiz-adv-x="575" 
d="M288 476q-27 0 -45.5 18.5t-18.5 45.5t18.5 45t45.5 18t45 -18t18 -45t-18 -45.5t-45 -18.5zM55 309v83h465v-83h-465zM288 97q-27 0 -45.5 18.5t-18.5 45.5t18.5 45t45.5 18t45 -18t18 -45t-18 -45.5t-45 -18.5z" />
    <glyph glyph-name="oslash" unicode="&#xf8;" horiz-adv-x="602" 
d="M494 431q71 -76 71 -181q0 -111 -77 -187t-187 -76q-84 0 -154 48l-36 -41l-45 26l43 49q-71 76 -71 181q0 111 76.5 187t186.5 76q86 0 154 -49l37 42l45 -26zM125 250q0 -67 41 -116l233 266q-44 28 -98 28q-74 0 -125 -51t-51 -127zM301 72q75 0 126 51t51 127
q0 67 -41 116l-233 -266q44 -28 97 -28z" />
    <glyph glyph-name="ugrave" unicode="&#xf9;" horiz-adv-x="564" 
d="M342 568h-84l-101 132h105zM411 500h87v-500h-87v72q-53 -85 -162 -85q-88 0 -141 55.5t-53 150.5v307h87v-302q0 -61 33 -94.5t91 -33.5q65 0 105 40.5t40 124.5v265z" />
    <glyph glyph-name="uacute" unicode="&#xfa;" horiz-adv-x="564" 
d="M400 700l-101 -132h-84l80 132h105zM411 500h87v-500h-87v72q-53 -85 -162 -85q-88 0 -141 55.5t-53 150.5v307h87v-302q0 -61 33 -94.5t91 -33.5q65 0 105 40.5t40 124.5v265z" />
    <glyph glyph-name="ucircumflex" unicode="&#xfb;" horiz-adv-x="564" 
d="M274 646l-61 -81h-93l106 135h96l106 -135h-93zM411 500h87v-500h-87v72q-53 -85 -162 -85q-88 0 -141 55.5t-53 150.5v307h87v-302q0 -61 33 -94.5t91 -33.5q65 0 105 40.5t40 124.5v265z" />
    <glyph glyph-name="udieresis" unicode="&#xfc;" horiz-adv-x="564" 
d="M180 566q-22 0 -37.5 15.5t-15.5 37.5t15.5 37t37.5 15t37 -15t15 -37t-15 -37.5t-37 -15.5zM370 566q-22 0 -37.5 15.5t-15.5 37.5t15.5 37t37.5 15t37 -15t15 -37t-15 -37.5t-37 -15.5zM411 500h87v-500h-87v72q-53 -85 -162 -85q-88 0 -141 55.5t-53 150.5v307h87
v-302q0 -61 33 -94.5t91 -33.5q65 0 105 40.5t40 124.5v265z" />
    <glyph glyph-name="yacute" unicode="&#xfd;" horiz-adv-x="515" 
d="M381 700l-101 -132h-84l80 132h105zM415 500h93l-204 -531q-32 -85 -89.5 -129.5t-132.5 -39.5v81q92 -7 135 102l9 19l-218 498h93l170 -392z" />
    <glyph glyph-name="thorn" unicode="&#xfe;" 
d="M342 513q105 0 179 -76.5t74 -186.5t-74 -186.5t-179 -76.5q-124 0 -189 99v-286h-87v900h87v-286q65 99 189 99zM331 71q75 0 126 51.5t51 127.5t-51 127.5t-126 51.5q-76 0 -127 -51.5t-51 -127.5t51 -127.5t127 -51.5z" />
    <glyph glyph-name="ydieresis" unicode="&#xff;" horiz-adv-x="515" 
d="M161 566q-22 0 -37.5 15.5t-15.5 37.5t15.5 37t37.5 15t37 -15t15 -37t-15 -37.5t-37 -15.5zM351 566q-22 0 -37.5 15.5t-15.5 37.5t15.5 37t37.5 15t37 -15t15 -37t-15 -37.5t-37 -15.5zM415 500h93l-204 -531q-32 -85 -89.5 -129.5t-132.5 -39.5v81q92 -7 135 102l9 19
l-218 498h93l170 -392z" />
    <glyph glyph-name="Amacron" unicode="&#x100;" horiz-adv-x="643" 
d="M456 848v-73h-270v73h270zM536 0l-57 157h-315l-57 -157h-99l261 700h105l261 -700h-99zM196 244h251l-126 345z" />
    <glyph glyph-name="amacron" unicode="&#x101;" 
d="M441 648v-73h-270v73h270zM480 500h87v-500h-87v86q-65 -99 -189 -99q-105 0 -179 76.5t-74 186.5t74 186.5t179 76.5q124 0 189 -99v86zM302 71q76 0 127 51.5t51 127.5t-51 127.5t-127 51.5q-75 0 -126 -51.5t-51 -127.5t51 -127.5t126 -51.5z" />
    <glyph glyph-name="Abreve" unicode="&#x102;" horiz-adv-x="643" 
d="M321 757q-69 0 -109 35.5t-40 99.5h81q0 -65 68 -65t68 65h81q0 -64 -39.5 -99.5t-109.5 -35.5zM536 0l-57 157h-315l-57 -157h-99l261 700h105l261 -700h-99zM196 244h251l-126 345z" />
    <glyph glyph-name="abreve" unicode="&#x103;" 
d="M306 557q-69 0 -109 35.5t-40 99.5h81q0 -65 68 -65t68 65h81q0 -64 -39.5 -99.5t-109.5 -35.5zM480 500h87v-500h-87v86q-65 -99 -189 -99q-105 0 -179 76.5t-74 186.5t74 186.5t179 76.5q124 0 189 -99v86zM302 71q76 0 127 51.5t51 127.5t-51 127.5t-127 51.5
q-75 0 -126 -51.5t-51 -127.5t51 -127.5t126 -51.5z" />
    <glyph glyph-name="Aogonek" unicode="&#x104;" horiz-adv-x="643" 
d="M567 -114q0 -30 31 -30q20 0 37 8v-64q-31 -13 -66 -13q-40 0 -63.5 21.5t-23.5 58.5q0 61 70 133h-16l-57 157h-315l-57 -157h-99l261 700h105l261 -700q-68 -65 -68 -114zM196 244h251l-126 345z" />
    <glyph glyph-name="aogonek" unicode="&#x105;" 
d="M567 0q-69 -66 -69 -114q0 -30 31 -30q21 0 38 8v-64q-33 -13 -67 -13q-40 0 -63 21.5t-23 58.5q0 60 66 136v83q-65 -99 -189 -99q-105 0 -179 76.5t-74 186.5t74 186.5t179 76.5q124 0 189 -99v86h87v-500zM302 71q76 0 127 51.5t51 127.5t-51 127.5t-127 51.5
q-75 0 -126 -51.5t-51 -127.5t51 -127.5t126 -51.5z" />
    <glyph glyph-name="Cacute" unicode="&#x106;" horiz-adv-x="739" 
d="M344 771h84l101 132h-105zM404 -13q-159 0 -262.5 105t-103.5 258t103.5 258t262.5 105q96 0 176.5 -46t125.5 -124l-81 -47q-30 58 -89.5 92.5t-131.5 34.5q-121 0 -197.5 -78t-76.5 -195q0 -116 76.5 -194t197.5 -78q72 0 131.5 34.5t89.5 91.5l81 -46
q-44 -78 -125 -124.5t-177 -46.5z" />
    <glyph glyph-name="cacute" unicode="&#x107;" horiz-adv-x="547" 
d="M233 568h84l101 132h-105zM301 -13q-113 0 -188 75.5t-75 187.5t75 187.5t188 75.5q74 0 133 -35.5t88 -95.5l-73 -42q-19 40 -58.5 64t-89.5 24q-75 0 -125.5 -51t-50.5 -127q0 -75 50.5 -126t125.5 -51q50 0 90 23.5t61 63.5l74 -43q-32 -59 -92 -94.5t-133 -35.5z" />
    <glyph glyph-name="Cdotaccent" unicode="&#x10a;" horiz-adv-x="739" 
d="M404 767q-26 0 -44.5 18t-18.5 44t18.5 44.5t44.5 18.5t44 -18.5t18 -44.5q0 -25 -18 -43.5t-44 -18.5zM404 -13q-159 0 -262.5 105t-103.5 258t103.5 258t262.5 105q96 0 176.5 -46t125.5 -124l-81 -47q-30 58 -89.5 92.5t-131.5 34.5q-121 0 -197.5 -78t-76.5 -195
q0 -116 76.5 -194t197.5 -78q72 0 131.5 34.5t89.5 91.5l81 -46q-44 -78 -125 -124.5t-177 -46.5z" />
    <glyph glyph-name="cdotaccent" unicode="&#x10b;" horiz-adv-x="547" 
d="M293 564q-26 0 -44.5 18t-18.5 44t18.5 44.5t44.5 18.5t44 -18.5t18 -44.5t-18.5 -44t-43.5 -18zM301 -13q-113 0 -188 75.5t-75 187.5t75 187.5t188 75.5q74 0 133 -35.5t88 -95.5l-73 -42q-19 40 -58.5 64t-89.5 24q-75 0 -125.5 -51t-50.5 -127q0 -75 50.5 -126
t125.5 -51q50 0 90 23.5t61 63.5l74 -43q-32 -59 -92 -94.5t-133 -35.5z" />
    <glyph glyph-name="Ccaron" unicode="&#x10c;" horiz-adv-x="739" 
d="M355 768l-106 135h93l61 -81l61 81h93l-106 -135h-96zM404 78q72 0 131.5 34.5t89.5 91.5l81 -46q-44 -78 -125 -124.5t-177 -46.5q-159 0 -262.5 105t-103.5 258t103.5 258t262.5 105q96 0 176.5 -46t125.5 -124l-81 -47q-30 58 -89.5 92.5t-131.5 34.5
q-121 0 -197.5 -78t-76.5 -195q0 -116 76.5 -194t197.5 -78z" />
    <glyph glyph-name="ccaron" unicode="&#x10d;" horiz-adv-x="547" 
d="M244 565l-106 135h93l61 -81l61 81h93l-106 -135h-96zM452 160l74 -43q-32 -59 -92 -94.5t-133 -35.5q-113 0 -188 75.5t-75 187.5t75 187.5t188 75.5q74 0 133 -35.5t88 -95.5l-73 -42q-19 40 -58.5 64t-89.5 24q-75 0 -125.5 -51t-50.5 -127q0 -75 50.5 -126t125.5 -51
q50 0 90 23.5t61 63.5z" />
    <glyph glyph-name="Dcaron" unicode="&#x10e;" horiz-adv-x="718" 
d="M296 765l-106 135h93l61 -81l61 81h93l-106 -135h-96zM348 700q143 0 237.5 -101.5t94.5 -248.5t-94.5 -248.5t-237.5 -101.5h-273v700h273zM348 88q107 0 175 75t68 187t-68 187t-175 75h-180v-524h180z" />
    <glyph glyph-name="dcaron" unicode="&#x10f;" horiz-adv-x="713" 
d="M480 414v286h87v-700h-87v86q-65 -99 -189 -99q-105 0 -179 76.5t-74 186.5t74 186.5t179 76.5q124 0 189 -99zM639 700h84l-30 -180h-64zM302 71q76 0 127 51.5t51 127.5t-51 127.5t-127 51.5q-75 0 -126 -51.5t-51 -127.5t51 -127.5t126 -51.5z" />
    <glyph glyph-name="Dcroat" unicode="&#x110;" horiz-adv-x="743" 
d="M373 700q143 0 237.5 -101.5t94.5 -248.5t-94.5 -248.5t-237.5 -101.5h-273v306h-73v84h73v310h273zM373 88q107 0 175 75t68 187t-68 187t-175 75h-180v-222h199v-84h-199v-218h180z" />
    <glyph glyph-name="dcroat" unicode="&#x111;" horiz-adv-x="642" 
d="M634 633v-64h-67v-569h-87v86q-65 -99 -189 -99q-105 0 -179 76.5t-74 186.5t74 186.5t179 76.5q124 0 189 -99v155h-173v64h173v67h87v-67h67zM302 71q76 0 127 51.5t51 127.5t-51 127.5t-127 51.5q-75 0 -126 -51.5t-51 -127.5t51 -127.5t126 -51.5z" />
    <glyph glyph-name="Emacron" unicode="&#x112;" horiz-adv-x="530" 
d="M417 848v-73h-270v73h270zM168 88h325v-88h-418v700h413v-88h-320v-215h295v-87h-295v-222z" />
    <glyph glyph-name="emacron" unicode="&#x113;" horiz-adv-x="583" 
d="M429 649v-73h-270v73h270zM127 210q13 -67 61.5 -104t119.5 -37q99 0 144 73l74 -42q-73 -113 -220 -113q-119 0 -193.5 74.5t-74.5 188.5q0 113 73 188t189 75q110 0 179.5 -77.5t69.5 -186.5q0 -19 -3 -39h-419zM300 431q-70 0 -116 -39.5t-57 -105.5h334
q-11 71 -56 108t-105 37z" />
    <glyph glyph-name="Edotaccent" unicode="&#x116;" horiz-adv-x="530" 
d="M282 764q-26 0 -44.5 18t-18.5 44t18.5 44.5t44.5 18.5t44 -18.5t18 -44.5t-18 -44t-44 -18zM168 88h325v-88h-418v700h413v-88h-320v-215h295v-87h-295v-222z" />
    <glyph glyph-name="edotaccent" unicode="&#x117;" horiz-adv-x="583" 
d="M294 565q-26 0 -44.5 18t-18.5 44t18.5 44.5t44.5 18.5t44 -18.5t18 -44.5q0 -25 -18 -43.5t-44 -18.5zM127 210q13 -67 61.5 -104t119.5 -37q99 0 144 73l74 -42q-73 -113 -220 -113q-119 0 -193.5 74.5t-74.5 188.5q0 113 73 188t189 75q110 0 179.5 -77.5t69.5 -186.5
q0 -19 -3 -39h-419zM300 431q-70 0 -116 -39.5t-57 -105.5h334q-11 71 -56 108t-105 37z" />
    <glyph glyph-name="Eogonek" unicode="&#x118;" horiz-adv-x="530" 
d="M493 0q-68 -65 -68 -114q-1 -15 7 -22.5t24 -7.5q20 0 37 8v-64q-32 -13 -66 -13q-41 0 -64 21.5t-23 58.5q0 63 70 133h-335v700h413v-88h-320v-215h295v-87h-295v-222h325v-88z" />
    <glyph glyph-name="eogonek" unicode="&#x119;" horiz-adv-x="583" 
d="M127 210q13 -67 61.5 -104t119.5 -37q99 0 144 73l74 -42q-16 -24 -39 -46q-105 -115 -105 -168q0 -30 31 -30q21 0 37 8v-64q-31 -13 -66 -13q-40 0 -63 21.5t-23 58.5q0 62 64 125q-30 -5 -56 -5q-119 0 -193.5 74.5t-74.5 188.5q0 113 73 188t189 75
q110 0 179.5 -77.5t69.5 -186.5q0 -19 -3 -39h-419zM300 431q-70 0 -116 -39.5t-57 -105.5h334q-11 71 -56 108t-105 37z" />
    <glyph glyph-name="Ecaron" unicode="&#x11a;" horiz-adv-x="530" 
d="M233 765l-106 135h93l61 -81l61 81h93l-106 -135h-96zM168 88h325v-88h-418v700h413v-88h-320v-215h295v-87h-295v-222z" />
    <glyph glyph-name="ecaron" unicode="&#x11b;" horiz-adv-x="583" 
d="M245 566l-106 135h93l61 -81l61 81h93l-106 -135h-96zM127 210q13 -67 61.5 -104t119.5 -37q99 0 144 73l74 -42q-73 -113 -220 -113q-119 0 -193.5 74.5t-74.5 188.5q0 113 73 188t189 75q110 0 179.5 -77.5t69.5 -186.5q0 -19 -3 -39h-419zM300 431q-70 0 -116 -39.5
t-57 -105.5h334q-11 71 -56 108t-105 37z" />
    <glyph glyph-name="Gbreve" unicode="&#x11e;" horiz-adv-x="788" 
d="M394 760q-69 0 -109 35.5t-40 99.5h81q0 -65 68 -65t68 65h81q0 -64 -39.5 -99.5t-109.5 -35.5zM750 347v-42q0 -137 -94 -227.5t-249 -90.5q-160 0 -264.5 105.5t-104.5 257.5t104.5 257.5t262.5 105.5q97 0 178 -46.5t125 -122.5l-80 -47q-30 57 -90.5 91.5
t-133.5 34.5q-120 0 -197 -78.5t-77 -194.5t77.5 -194t200.5 -78q105 0 170 51.5t79 133.5h-257v84h350z" />
    <glyph glyph-name="gbreve" unicode="&#x11f;" 
d="M304 560q-69 0 -109 35.5t-40 99.5h81q0 -65 68 -65t68 65h81q0 -64 -39.5 -99.5t-109.5 -35.5zM481 500h86v-479q0 -111 -75 -172.5t-180 -61.5q-84 0 -145 31.5t-92 90.5l76 43q41 -84 163 -84q78 0 122.5 41t44.5 112v71q-66 -100 -188 -100q-107 0 -181 76t-74 185
t74 184.5t181 75.5q123 0 188 -99v86zM303 75q76 0 127 51t51 127q0 75 -51 126t-127 51t-127 -51t-51 -126q0 -76 51 -127t127 -51z" />
    <glyph glyph-name="Gdotaccent" unicode="&#x120;" horiz-adv-x="788" 
d="M394 767q-26 0 -44.5 18t-18.5 44t18.5 44.5t44.5 18.5t44 -18.5t18 -44.5q0 -25 -18 -43.5t-44 -18.5zM750 347v-42q0 -137 -94 -227.5t-249 -90.5q-160 0 -264.5 105.5t-104.5 257.5t104.5 257.5t262.5 105.5q97 0 178 -46.5t125 -122.5l-80 -47q-30 57 -90.5 91.5
t-133.5 34.5q-120 0 -197 -78.5t-77 -194.5t77.5 -194t200.5 -78q105 0 170 51.5t79 133.5h-257v84h350z" />
    <glyph glyph-name="gdotaccent" unicode="&#x121;" 
d="M304 567q-26 0 -44.5 18t-18.5 44t18.5 44.5t44.5 18.5t44 -18.5t18 -44.5q0 -25 -18 -43.5t-44 -18.5zM481 500h86v-479q0 -111 -75 -172.5t-180 -61.5q-84 0 -145 31.5t-92 90.5l76 43q41 -84 163 -84q78 0 122.5 41t44.5 112v71q-66 -100 -188 -100q-107 0 -181 76
t-74 185t74 184.5t181 75.5q123 0 188 -99v86zM303 75q76 0 127 51t51 127q0 75 -51 126t-127 51t-127 -51t-51 -126q0 -76 51 -127t127 -51z" />
    <glyph glyph-name="Gcommaaccent" unicode="&#x122;" horiz-adv-x="788" 
d="M750 347v-42q0 -137 -94 -227.5t-249 -90.5q-160 0 -264.5 105.5t-104.5 257.5t104.5 257.5t262.5 105.5q97 0 178 -46.5t125 -122.5l-80 -47q-30 57 -90.5 91.5t-133.5 34.5q-120 0 -197 -78.5t-77 -194.5t77.5 -194t200.5 -78q105 0 170 51.5t79 133.5h-257v84h350z
M370 -248l10 180h85l-30 -180h-65z" />
    <glyph glyph-name="gcommaaccent" unicode="&#x123;" 
d="M350 768l-10 -180h-85l30 180h65zM481 500h86v-479q0 -111 -75 -172.5t-180 -61.5q-84 0 -145 31.5t-92 90.5l76 43q41 -84 163 -84q78 0 122.5 41t44.5 112v71q-66 -100 -188 -100q-107 0 -181 76t-74 185t74 184.5t181 75.5q123 0 188 -99v86zM303 75q76 0 127 51
t51 127q0 75 -51 126t-127 51t-127 -51t-51 -126q0 -76 51 -127t127 -51z" />
    <glyph glyph-name="Hbar" unicode="&#x126;" horiz-adv-x="723" 
d="M688 579v-71h-64v-508h-93v309h-340v-309h-92v508h-64v71h64v121h92v-121h340v121h93v-121h64zM531 397v111h-340v-111h340z" />
    <glyph glyph-name="hbar" unicode="&#x127;" horiz-adv-x="573" 
d="M324 513q88 0 141 -55.5t53 -150.5v-307h-87v302q0 61 -33 94.5t-91 33.5q-65 0 -105 -40.5t-40 -124.5v-265h-87v569h-67v64h67v67h87v-67h143v-64h-143v-141q53 85 162 85z" />
    <glyph glyph-name="Imacron" unicode="&#x12a;" horiz-adv-x="243" 
d="M-14 775v73h270v-73h-270zM75 700h93v-700h-93v700z" />
    <glyph glyph-name="imacron" unicode="&#x12b;" horiz-adv-x="220" 
d="M5 575v76h210v-76h-210zM66 0v500h87v-500h-87z" />
    <glyph glyph-name="Iogonek" unicode="&#x12e;" horiz-adv-x="243" 
d="M157 -144q21 0 38 8v-64q-33 -13 -67 -13q-40 0 -63 21.5t-23 58.5q0 57 40 133h-7v700h93v-700q-42 -75 -42 -114q0 -30 31 -30z" />
    <glyph glyph-name="iogonek" unicode="&#x12f;" horiz-adv-x="220" 
d="M110 591q-25 0 -42 17t-17 41t17 41.5t42 17.5q24 0 41 -17.5t17 -41.5t-17 -41t-41 -17zM146 -144q20 0 37 8v-64q-33 -13 -66 -13q-40 0 -63.5 25t-23.5 63q0 52 39 125h-3v500h87v-500q-38 -62 -38 -107q-1 -15 7.5 -26t23.5 -11z" />
    <glyph glyph-name="Idotaccent" unicode="&#x130;" horiz-adv-x="243" 
d="M121 764q-26 0 -44.5 18t-18.5 44t18.5 44.5t44.5 18.5t44 -18.5t18 -44.5t-18.5 -44t-43.5 -18zM75 700h93v-700h-93v700z" />
    <glyph glyph-name="dotlessi" unicode="&#x131;" horiz-adv-x="220" 
d="M66 0v500h87v-500h-87z" />
    <glyph glyph-name="Kcommaaccent" unicode="&#x136;" horiz-adv-x="592" 
d="M265 360l319 -360h-114l-302 336v-336h-93v700h93v-316l292 316h114zM257 -248l10 180h85l-30 -180h-65z" />
    <glyph glyph-name="kcommaaccent" unicode="&#x137;" horiz-adv-x="504" 
d="M242 258l247 -258h-108l-228 237v-237h-87v700h87v-421l216 221h112zM220 -248l10 180h85l-30 -180h-65z" />
    <glyph glyph-name="Lacute" unicode="&#x139;" horiz-adv-x="488" 
d="M262 900l-101 -132h-84l80 132h105zM168 88h302v-88h-395v700h93v-612z" />
    <glyph glyph-name="lacute" unicode="&#x13a;" horiz-adv-x="220" 
d="M66 768h84l101 132h-105zM66 0v730h87v-730h-87z" />
    <glyph glyph-name="Lcommaaccent" unicode="&#x13b;" horiz-adv-x="488" 
d="M168 88h302v-88h-395v700h93v-612zM231 -248l10 180h85l-30 -180h-65z" />
    <glyph glyph-name="lcommaaccent" unicode="&#x13c;" horiz-adv-x="220" 
d="M66 0v730h87v-730h-87zM124 -248l30 180h-85l-10 -180h65z" />
    <glyph glyph-name="Lcaron" unicode="&#x13d;" horiz-adv-x="488" 
d="M168 88h302v-88h-395v700h93v-612zM357 700l-30 -175h-67l10 175h87z" />
    <glyph glyph-name="lcaron" unicode="&#x13e;" horiz-adv-x="299" 
d="M66 0v730h87v-730h-87zM279 550l30 180h-84l-10 -180h64z" />
    <glyph glyph-name="Lslash" unicode="&#x141;" horiz-adv-x="508" 
d="M188 88h302v-88h-395v233l-60 -35v88l60 35v379h93v-324l157 93v-88l-157 -93v-200z" />
    <glyph glyph-name="lslash" unicode="&#x142;" horiz-adv-x="248" 
d="M230 470v-83l-63 -43v-344h-87v284l-62 -42v83l62 42v363h87v-303z" />
    <glyph glyph-name="Nacute" unicode="&#x143;" horiz-adv-x="678" 
d="M276 768h84l101 132h-105zM510 700h93v-700h-75l-360 523v-523h-93v700h75l360 -522v522z" />
    <glyph glyph-name="nacute" unicode="&#x144;" horiz-adv-x="564" 
d="M418 703l-101 -132h-84l80 132h105zM315 513q88 0 141 -55.5t53 -150.5v-307h-87v302q0 61 -33 94.5t-91 33.5q-65 0 -105 -40.5t-40 -124.5v-265h-87v500h87v-72q53 85 162 85z" />
    <glyph glyph-name="Ncommaaccent" unicode="&#x145;" horiz-adv-x="678" 
d="M510 700h93v-700h-75l-360 523v-523h-93v700h75l360 -522v522zM354 -248l30 180h-85l-10 -180h65z" />
    <glyph glyph-name="ncommaaccent" unicode="&#x146;" horiz-adv-x="564" 
d="M315 513q88 0 141 -55.5t53 -150.5v-307h-87v302q0 61 -33 94.5t-91 33.5q-65 0 -105 -40.5t-40 -124.5v-265h-87v500h87v-72q53 85 162 85zM243 -248l10 180h85l-30 -180h-65z" />
    <glyph glyph-name="Ncaron" unicode="&#x147;" horiz-adv-x="678" 
d="M287 765l-106 135h93l61 -81l61 81h93l-106 -135h-96zM510 700h93v-700h-75l-360 523v-523h-93v700h75l360 -522v522z" />
    <glyph glyph-name="ncaron" unicode="&#x148;" horiz-adv-x="564" 
d="M244 568l-106 135h93l61 -81l61 81h93l-106 -135h-96zM315 513q88 0 141 -55.5t53 -150.5v-307h-87v302q0 61 -33 94.5t-91 33.5q-65 0 -105 -40.5t-40 -124.5v-265h-87v500h87v-72q53 85 162 85z" />
    <glyph glyph-name="Eng" unicode="&#x14a;" horiz-adv-x="678" 
d="M510 700h93v-700q0 -106 -59 -154t-159 -46v87q62 0 93.5 24t31.5 92v23l-342 497v-523h-93v700h75l360 -522v522z" />
    <glyph glyph-name="eng" unicode="&#x14b;" horiz-adv-x="564" 
d="M315 513q88 0 141 -55.5t53 -150.5v-337q0 -95 -49 -142.5t-141 -40.5v84q52 -5 77.5 18t25.5 81v332q0 61 -33 94.5t-91 33.5q-65 0 -105 -40.5t-40 -124.5v-265h-87v500h87v-72q53 85 162 85z" />
    <glyph glyph-name="Omacron" unicode="&#x14c;" horiz-adv-x="800" 
d="M265 778v73h270v-73h-270zM400 -13q-152 0 -257 106t-105 257q0 152 105 257.5t257 105.5t257.5 -105.5t105.5 -257.5q0 -151 -105.5 -257t-257.5 -106zM400 78q115 0 192.5 78.5t77.5 193.5q0 116 -77.5 194.5t-192.5 78.5t-192.5 -78.5t-77.5 -194.5
q0 -115 77.5 -193.5t192.5 -78.5z" />
    <glyph glyph-name="omacron" unicode="&#x14d;" horiz-adv-x="602" 
d="M166 578v73h270v-73h-270zM301 -13q-110 0 -186.5 76t-76.5 187t76.5 187t186.5 76t187 -76t77 -187t-77 -187t-187 -76zM301 72q75 0 126 51t51 127t-51 127t-126 51q-74 0 -125 -51t-51 -127t51 -127t125 -51z" />
    <glyph glyph-name="Ohungarumlaut" unicode="&#x150;" horiz-adv-x="800" 
d="M255 768h88l79 133h-94zM408 768h88l89 133h-94zM400 -13q-152 0 -257 106t-105 257q0 152 105 257.5t257 105.5t257.5 -105.5t105.5 -257.5q0 -151 -105.5 -257t-257.5 -106zM400 78q115 0 192.5 78.5t77.5 193.5q0 116 -77.5 194.5t-192.5 78.5t-192.5 -78.5
t-77.5 -194.5q0 -115 77.5 -193.5t192.5 -78.5z" />
    <glyph glyph-name="ohungarumlaut" unicode="&#x151;" horiz-adv-x="602" 
d="M156 568h88l79 133h-94zM309 568h88l89 133h-94zM301 -13q-110 0 -186.5 76t-76.5 187t76.5 187t186.5 76t187 -76t77 -187t-77 -187t-187 -76zM301 72q75 0 126 51t51 127t-51 127t-126 51q-74 0 -125 -51t-51 -127t51 -127t125 -51z" />
    <glyph glyph-name="OE" unicode="&#x152;" horiz-adv-x="915" 
d="M578 88h300v-88h-393q-47 -13 -95 -13q-151 0 -251.5 105.5t-100.5 257.5q0 153 100.5 258t251.5 105q48 0 95 -13h388v-88h-295v-215h277v-87h-277v-222zM485 93v515q-43 15 -95 15q-114 0 -187 -78t-73 -195q0 -116 73 -194t187 -78q55 0 95 15z" />
    <glyph glyph-name="oe" unicode="&#x153;" horiz-adv-x="1023" 
d="M567 210q12 -67 61 -104t118 -37q101 0 146 73l74 -42q-34 -53 -90 -83t-128 -30q-79 0 -138 36t-89 99q-31 -62 -89 -98.5t-132 -36.5q-113 0 -187.5 75.5t-74.5 187.5t74.5 187.5t187.5 75.5q74 0 132 -36.5t89 -98.5q30 62 87.5 98.5t134.5 36.5q109 0 177.5 -77.5
t68.5 -186.5q0 -19 -3 -39h-419zM740 431q-69 0 -115.5 -39t-57.5 -105h334q-11 70 -56 107t-105 37zM301 72q75 0 126 51t51 127t-51 127t-126 51q-77 0 -126.5 -51t-49.5 -127t49.5 -127t126.5 -51z" />
    <glyph glyph-name="Racute" unicode="&#x154;" horiz-adv-x="611" 
d="M430 900l-101 -132h-84l80 132h105zM490 0l-157 268h-165v-268h-93v700h280q90 0 154 -63.5t64 -153.5q0 -68 -40.5 -124t-104.5 -79l165 -280h-103zM168 613v-261h187q52 0 88.5 38.5t36.5 92.5t-36.5 92t-88.5 38h-187z" />
    <glyph glyph-name="racute" unicode="&#x155;" horiz-adv-x="328" 
d="M311 700l-101 -132h-84l80 132h105zM153 416q43 93 156 93v-91q-64 3 -110 -34t-46 -119v-265h-87v500h87v-84z" />
    <glyph glyph-name="Rcommaaccent" unicode="&#x156;" horiz-adv-x="611" 
d="M428 280l165 -280h-103l-157 268h-165v-268h-93v700h280q90 0 154 -63.5t64 -153.5q0 -68 -40.5 -124t-104.5 -79zM168 613v-261h187q52 0 88.5 38.5t36.5 92.5t-36.5 92t-88.5 38h-187zM278 -248l10 180h85l-30 -180h-65z" />
    <glyph glyph-name="rcommaaccent" unicode="&#x157;" horiz-adv-x="328" 
d="M153 416q43 93 156 93v-91q-64 3 -110 -34t-46 -119v-265h-87v500h87v-84zM59 -248l10 180h85l-30 -180h-65z" />
    <glyph glyph-name="Rcaron" unicode="&#x158;" horiz-adv-x="611" 
d="M256 765l-106 135h93l61 -81l61 81h93l-106 -135h-96zM490 0l-157 268h-165v-268h-93v700h280q90 0 154 -63.5t64 -153.5q0 -68 -40.5 -124t-104.5 -79l165 -280h-103zM168 613v-261h187q52 0 88.5 38.5t36.5 92.5t-36.5 92t-88.5 38h-187z" />
    <glyph glyph-name="rcaron" unicode="&#x159;" horiz-adv-x="328" 
d="M137 565l-106 135h93l61 -81l61 81h93l-106 -135h-96zM153 416q43 93 156 93v-91q-64 3 -110 -34t-46 -119v-265h-87v500h87v-84z" />
    <glyph glyph-name="Sacute" unicode="&#x15a;" horiz-adv-x="578" 
d="M226 771h84l101 132h-105zM301 -13q-98 0 -167.5 46t-97.5 126l80 46q41 -127 187 -127q72 0 110 29.5t38 78.5q0 50 -38 75t-127 53q-44 14 -67 22.5t-57.5 26t-51.5 36t-30.5 48.5t-13.5 68q0 91 64 144.5t156 53.5q83 0 144.5 -42t92.5 -111l-78 -45q-45 108 -159 108
q-57 0 -92 -28t-35 -76q0 -46 33 -70t114 -50q29 -9 41 -13t37.5 -14t37.5 -16t32.5 -17t30.5 -21t23.5 -24.5t19.5 -29.5t10.5 -34.5t4.5 -41.5q0 -92 -67 -146.5t-175 -54.5z" />
    <glyph glyph-name="sacute" unicode="&#x15b;" horiz-adv-x="458" 
d="M355 703l-101 -132h-84l80 132h105zM141 365q0 -29 29 -46.5t70 -28t82 -24t70 -46t29 -83.5q0 -68 -52.5 -109t-134.5 -41q-73 0 -125 32t-74 85l75 43q12 -36 45 -57t79 -21q43 0 71 16.5t28 51.5q0 29 -29 46.5t-70 28t-82 24.5t-70 46t-29 82q0 65 50.5 107t126.5 42
q61 0 108.5 -27.5t71.5 -76.5l-73 -41q-27 64 -107 64q-37 0 -63 -17.5t-26 -49.5z" />
    <glyph glyph-name="Scedilla" unicode="&#x15e;" horiz-adv-x="578" 
d="M543 188q0 -85 -58 -138.5t-154 -61.5v-33q38 -8 61.5 -29t23.5 -51q0 -103 -210 -91v66q134 -10 134 31q0 31 -83 36v73q-82 10 -139 54t-82 115l80 46q41 -127 187 -127q72 0 110 29.5t38 78.5q0 50 -38 75t-127 53q-44 14 -67 22.5t-57.5 26t-51.5 36t-30.5 48.5
t-13.5 68q0 91 64 144.5t156 53.5q83 0 144.5 -42t92.5 -111l-78 -45q-45 108 -159 108q-57 0 -92 -28t-35 -76q0 -46 33 -70t114 -50q29 -9 41 -13t37.5 -14t37.5 -16t32.5 -17t30.5 -21t23.5 -24.5t19.5 -29.5t10.5 -34.5t4.5 -41.5z" />
    <glyph glyph-name="scedilla" unicode="&#x15f;" horiz-adv-x="458" 
d="M421 137q0 -60 -41 -99.5t-109 -48.5v-34q38 -8 61.5 -29t23.5 -51q0 -103 -210 -91v66q134 -10 134 31q0 31 -83 36v72q-121 17 -162 115l75 43q12 -36 45 -57t79 -21q43 0 71 16.5t28 51.5q0 29 -29 46.5t-70 28t-82 24.5t-70 46t-29 82q0 65 50.5 107t126.5 42
q61 0 108.5 -27.5t71.5 -76.5l-73 -41q-27 64 -107 64q-37 0 -63 -17.5t-26 -49.5q0 -29 29 -46.5t70 -28t82 -24t70 -46t29 -83.5z" />
    <glyph glyph-name="Scaron" unicode="&#x160;" horiz-adv-x="578" 
d="M237 768l-106 135h93l61 -81l61 81h93l-106 -135h-96zM306 399q29 -9 41 -13t37.5 -14t37.5 -16t32.5 -17t30.5 -21t23.5 -24.5t19.5 -29.5t10.5 -34.5t4.5 -41.5q0 -92 -67 -146.5t-175 -54.5q-98 0 -167.5 46t-97.5 126l80 46q41 -127 187 -127q72 0 110 29.5t38 78.5
q0 50 -38 75t-127 53q-44 14 -67 22.5t-57.5 26t-51.5 36t-30.5 48.5t-13.5 68q0 91 64 144.5t156 53.5q83 0 144.5 -42t92.5 -111l-78 -45q-45 108 -159 108q-57 0 -92 -28t-35 -76q0 -46 33 -70t114 -50z" />
    <glyph glyph-name="scaron" unicode="&#x161;" horiz-adv-x="458" 
d="M181 568l-106 135h93l61 -81l61 81h93l-106 -135h-96zM141 365q0 -29 29 -46.5t70 -28t82 -24t70 -46t29 -83.5q0 -68 -52.5 -109t-134.5 -41q-73 0 -125 32t-74 85l75 43q12 -36 45 -57t79 -21q43 0 71 16.5t28 51.5q0 29 -29 46.5t-70 28t-82 24.5t-70 46t-29 82
q0 65 50.5 107t126.5 42q61 0 108.5 -27.5t71.5 -76.5l-73 -41q-27 64 -107 64q-37 0 -63 -17.5t-26 -49.5z" />
    <glyph glyph-name="uni0162" unicode="&#x162;" horiz-adv-x="540" 
d="M523 700v-88h-207v-612h-92v612h-206v88h505zM220 -248l10 180h85l-30 -180h-65z" />
    <glyph glyph-name="uni0163" unicode="&#x163;" horiz-adv-x="378" 
d="M338 416h-133v-271q0 -37 14.5 -52.5t44.5 -16t74 1.5v-78q-114 -15 -167 18.5t-53 126.5v271h-99v84h99v114l87 26v-140h133v-84zM183 -248l10 180h85l-30 -180h-65z" />
    <glyph glyph-name="Tcaron" unicode="&#x164;" horiz-adv-x="540" 
d="M221 765l-106 135h93l61 -81l61 81h93l-106 -135h-96zM523 700v-88h-207v-612h-92v612h-206v88h505z" />
    <glyph glyph-name="tcaron" unicode="&#x165;" horiz-adv-x="385" 
d="M351 719l-30 -168h-65l10 168h85zM205 640v-140h133v-84h-133v-271q0 -37 14.5 -52.5t44.5 -16t74 1.5v-78q-114 -15 -167 18.5t-53 126.5v271h-99v84h99v114z" />
    <glyph glyph-name="Tbar" unicode="&#x166;" horiz-adv-x="540" 
d="M523 612h-207v-222h137v-84h-137v-306h-92v306h-136v84h136v222h-206v88h505v-88z" />
    <glyph glyph-name="tbar" unicode="&#x167;" horiz-adv-x="378" 
d="M338 416h-133v-124h91v-70h-91v-77q0 -37 14.5 -52.5t44.5 -16t74 1.5v-78q-114 -15 -167 18.5t-53 126.5v77h-64v70h64v124h-99v84h99v114l87 26v-140h133v-84z" />
    <glyph glyph-name="Umacron" unicode="&#x16a;" horiz-adv-x="658" 
d="M194 775v73h270v-73h-270zM329 -13q-116 0 -189.5 67.5t-73.5 180.5v465h93v-461q0 -74 44 -117.5t126 -43.5t126 43.5t44 117.5v461h92v-465q0 -113 -73 -180.5t-189 -67.5z" />
    <glyph glyph-name="umacron" unicode="&#x16b;" horiz-adv-x="564" 
d="M410 648v-73h-270v73h270zM411 500h87v-500h-87v72q-53 -85 -162 -85q-88 0 -141 55.5t-53 150.5v307h87v-302q0 -61 33 -94.5t91 -33.5q65 0 105 40.5t40 124.5v265z" />
    <glyph glyph-name="Uring" unicode="&#x16e;" horiz-adv-x="658" 
d="M329 716q-50 0 -81.5 30.5t-31.5 76.5t31.5 76t81.5 30t81.5 -30t31.5 -76t-31.5 -76.5t-81.5 -30.5zM329 777q23 0 35.5 13t12.5 33t-12.5 32.5t-35.5 12.5q-22 0 -34.5 -13t-12.5 -32q0 -20 12.5 -33t34.5 -13zM329 -13q-116 0 -189.5 67.5t-73.5 180.5v465h93v-461
q0 -74 44 -117.5t126 -43.5t126 43.5t44 117.5v461h92v-465q0 -113 -73 -180.5t-189 -67.5z" />
    <glyph glyph-name="uring" unicode="&#x16f;" horiz-adv-x="564" 
d="M275 546q-50 0 -81.5 30.5t-31.5 76.5t31.5 76t81.5 30t81.5 -30t31.5 -76t-31.5 -76.5t-81.5 -30.5zM275 698q-22 0 -34.5 -13t-12.5 -32q0 -20 12.5 -33t34.5 -13q23 0 35.5 13t12.5 33t-12.5 32.5t-35.5 12.5zM411 500h87v-500h-87v72q-53 -85 -162 -85
q-88 0 -141 55.5t-53 150.5v307h87v-302q0 -61 33 -94.5t91 -33.5q65 0 105 40.5t40 124.5v265z" />
    <glyph glyph-name="Uhungarumlaut" unicode="&#x170;" horiz-adv-x="658" 
d="M184 765h88l79 133h-94zM337 765h88l89 133h-94zM329 -13q-116 0 -189.5 67.5t-73.5 180.5v465h93v-461q0 -74 44 -117.5t126 -43.5t126 43.5t44 117.5v461h92v-465q0 -113 -73 -180.5t-189 -67.5z" />
    <glyph glyph-name="uhungarumlaut" unicode="&#x171;" horiz-adv-x="564" 
d="M297 698l-79 -133h-88l73 133h94zM371 565h-88l83 133h94zM411 500h87v-500h-87v72q-53 -85 -162 -85q-88 0 -141 55.5t-53 150.5v307h87v-302q0 -61 33 -94.5t91 -33.5q65 0 105 40.5t40 124.5v265z" />
    <glyph glyph-name="Uogonek" unicode="&#x172;" horiz-adv-x="658" 
d="M499 700h92v-465q0 -126 -91 -195q-61 -57 -85 -90t-24 -64q-1 -15 7 -22.5t24 -7.5q20 0 37 8v-64q-32 -13 -66 -13q-41 0 -64 21.5t-23 58.5q0 57 59 122q-22 -2 -36 -2q-116 0 -189.5 67.5t-73.5 180.5v465h93v-461q0 -74 44 -117.5t126 -43.5t126 43.5t44 117.5v461z
" />
    <glyph glyph-name="uogonek" unicode="&#x173;" horiz-adv-x="564" 
d="M498 0q-68 -65 -68 -114q0 -30 31 -30q20 0 37 8v-64q-31 -13 -66 -13q-40 0 -63.5 21.5t-23.5 58.5q0 53 66 134v71q-53 -85 -162 -85q-88 0 -141 55.5t-53 150.5v307h87v-302q0 -61 33 -94.5t91 -33.5q65 0 105 40.5t40 124.5v265h87v-500z" />
    <glyph glyph-name="Wcircumflex" unicode="&#x174;" horiz-adv-x="1000" 
d="M509 846l-61 -81h-93l106 135h96l106 -135h-93zM877 700h98l-201 -700h-108l-166 559l-166 -559h-108l-201 700h98l160 -576l170 576h94l170 -576z" />
    <glyph glyph-name="wcircumflex" unicode="&#x175;" horiz-adv-x="770" 
d="M384 646l-61 -81h-93l106 135h96l106 -135h-93zM655 500h91l-155 -500h-89l-117 370l-117 -370h-89l-155 500h91l110 -380l118 380h84l118 -381z" />
    <glyph glyph-name="Ycircumflex" unicode="&#x176;" horiz-adv-x="604" 
d="M298 846l-61 -81h-93l106 135h96l106 -135h-93zM596 700l-248 -417v-283h-93v284l-247 416h104l190 -328l190 328h104z" />
    <glyph glyph-name="ycircumflex" unicode="&#x177;" horiz-adv-x="515" 
d="M255 646l-61 -81h-93l106 135h96l106 -135h-93zM415 500h93l-204 -531q-32 -85 -89.5 -129.5t-132.5 -39.5v81q92 -7 135 102l9 19l-218 498h93l170 -392z" />
    <glyph glyph-name="Ydieresis" unicode="&#x178;" horiz-adv-x="604" 
d="M204 766q-22 0 -37.5 15.5t-15.5 37.5t15.5 37t37.5 15t37 -15t15 -37t-15 -37.5t-37 -15.5zM394 766q-22 0 -37.5 15.5t-15.5 37.5t15.5 37t37.5 15t37 -15t15 -37t-15 -37.5t-37 -15.5zM596 700l-248 -417v-283h-93v284l-247 416h104l190 -328l190 328h104z" />
    <glyph glyph-name="Zacute" unicode="&#x179;" horiz-adv-x="525" 
d="M393 900l-101 -132h-84l80 132h105zM149 88h347v-88h-457v81l338 531h-329v88h440v-80z" />
    <glyph glyph-name="zacute" unicode="&#x17a;" horiz-adv-x="471" 
d="M367 700l-101 -132h-84l80 132h105zM167 83h266v-83h-385v58l255 359h-245v83h365v-58z" />
    <glyph glyph-name="Zdotaccent" unicode="&#x17b;" horiz-adv-x="525" 
d="M268 764q-26 0 -44.5 18t-18.5 44t18.5 44.5t44.5 18.5t44 -18.5t18 -44.5t-18 -44t-44 -18zM149 88h347v-88h-457v81l338 531h-329v88h440v-80z" />
    <glyph glyph-name="zdotaccent" unicode="&#x17c;" horiz-adv-x="471" 
d="M242 564q-26 0 -44.5 18t-18.5 44t18.5 44.5t44.5 18.5t44 -18.5t18 -44.5t-18 -44t-44 -18zM167 83h266v-83h-385v58l255 359h-245v83h365v-58z" />
    <glyph glyph-name="Zcaron" unicode="&#x17d;" horiz-adv-x="525" 
d="M219 765l-106 135h93l61 -81l61 81h93l-106 -135h-96zM149 88h347v-88h-457v81l338 531h-329v88h440v-80z" />
    <glyph glyph-name="zcaron" unicode="&#x17e;" horiz-adv-x="471" 
d="M193 565l-106 135h93l61 -81l61 81h93l-106 -135h-96zM167 83h266v-83h-385v58l255 359h-245v83h365v-58z" />
    <glyph glyph-name="florin" unicode="&#x192;" horiz-adv-x="440" 
d="M440 618q-47 20 -81.5 2.5t-42.5 -66.5l-28 -161h107v-84h-121l-63 -369q-15 -94 -72.5 -129t-138.5 -12v85q47 -19 81.5 -1.5t42.5 65.5l62 361h-101v84h115l29 169q15 94 72.5 129.5t138.5 12.5v-86z" />
    <glyph glyph-name="Scommaaccent" unicode="&#x218;" horiz-adv-x="578" 
d="M301 -13q-98 0 -167.5 46t-97.5 126l80 46q41 -127 187 -127q72 0 110 29.5t38 78.5q0 50 -38 75t-127 53q-44 14 -67 22.5t-57.5 26t-51.5 36t-30.5 48.5t-13.5 68q0 91 64 144.5t156 53.5q83 0 144.5 -42t92.5 -111l-78 -45q-45 108 -159 108q-57 0 -92 -28t-35 -76
q0 -46 33 -70t114 -50q29 -9 41 -13t37.5 -14t37.5 -16t32.5 -17t30.5 -21t23.5 -24.5t19.5 -29.5t10.5 -34.5t4.5 -41.5q0 -92 -67 -146.5t-175 -54.5zM320 -248l30 180h-85l-10 -180h65z" />
    <glyph glyph-name="scommaaccent" unicode="&#x219;" horiz-adv-x="458" 
d="M141 365q0 -29 29 -46.5t70 -28t82 -24t70 -46t29 -83.5q0 -68 -52.5 -109t-134.5 -41q-73 0 -125 32t-74 85l75 43q12 -36 45 -57t79 -21q43 0 71 16.5t28 51.5q0 29 -29 46.5t-70 28t-82 24.5t-70 46t-29 82q0 65 50.5 107t126.5 42q61 0 108.5 -27.5t71.5 -76.5
l-73 -41q-27 64 -107 64q-37 0 -63 -17.5t-26 -49.5zM195 -248l10 180h85l-30 -180h-65z" />
    <glyph glyph-name="uni021A" unicode="&#x21a;" horiz-adv-x="540" 
d="M523 700v-88h-207v-612h-92v612h-206v88h505zM220 -248l10 180h85l-30 -180h-65z" />
    <glyph glyph-name="uni021B" unicode="&#x21b;" horiz-adv-x="378" 
d="M338 416h-133v-271q0 -37 14.5 -52.5t44.5 -16t74 1.5v-78q-114 -15 -167 18.5t-53 126.5v271h-99v84h99v114l87 26v-140h133v-84zM183 -248l10 180h85l-30 -180h-65z" />
    <glyph glyph-name="circumflex" unicode="&#x2c6;" horiz-adv-x="348" 
d="M328 565h-93l-61 81l-61 -81h-93l106 135h96z" />
    <glyph glyph-name="caron" unicode="&#x2c7;" horiz-adv-x="348" 
d="M235 700h93l-106 -135h-96l-106 135h93l61 -81z" />
    <glyph glyph-name="breve" unicode="&#x2d8;" horiz-adv-x="338" 
d="M169 557q-69 0 -109 35.5t-40 99.5h81q0 -65 68 -65t68 65h81q0 -64 -39.5 -99.5t-109.5 -35.5z" />
    <glyph glyph-name="dotaccent" unicode="&#x2d9;" horiz-adv-x="168" 
d="M83 564q-26 0 -44.5 18t-18.5 44t18.5 44.5t44.5 18.5t44 -18.5t18 -44.5t-18.5 -44t-43.5 -18z" />
    <glyph glyph-name="ring" unicode="&#x2da;" horiz-adv-x="266" 
d="M133 546q-50 0 -81.5 30.5t-31.5 76.5t31.5 76t81.5 30t81.5 -30t31.5 -76t-31.5 -76.5t-81.5 -30.5zM133 607q23 0 35.5 13t12.5 33t-12.5 32.5t-35.5 12.5q-22 0 -34.5 -13t-12.5 -32q0 -20 12.5 -33t34.5 -13z" />
    <glyph glyph-name="ogonek" unicode="&#x2db;" horiz-adv-x="193" 
d="M107 -213q-41 0 -64 21.5t-23 58.5q0 63 70 133h83q-68 -65 -68 -114q-1 -15 7 -22.5t24 -7.5q20 0 37 8v-64q-33 -13 -66 -13z" />
    <glyph glyph-name="tilde" unicode="&#x2dc;" horiz-adv-x="340" 
d="M21 573q0 64 23.5 96.5t58 31t72.5 -28.5q37 -30 54.5 -27.5t17.5 50.5h73q0 -64 -23 -96t-57.5 -30.5t-73.5 28.5q-36 30 -54 27.5t-18 -51.5h-73z" />
    <glyph glyph-name="hungarumlaut" unicode="&#x2dd;" horiz-adv-x="370" 
d="M20 565h88l79 133h-94zM173 565h88l89 133h-94z" />
    <glyph glyph-name="gravecomb" unicode="&#x300;" horiz-adv-x="0" 
d="M-20 568l-80 132h-105l101 -132h84z" />
    <glyph glyph-name="acutecomb" unicode="&#x301;" horiz-adv-x="0" 
d="M-205 568h84l101 132h-105z" />
    <glyph glyph-name="uni0302" unicode="&#x302;" horiz-adv-x="0" 
d="M-20 565h-93l-61 81l-61 -81h-93l106 135h96z" />
    <glyph glyph-name="tildecomb" unicode="&#x303;" horiz-adv-x="0" 
d="M-317 573q0 64 23.5 96.5t58 31t72.5 -28.5q37 -30 54.5 -27.5t17.5 50.5h73q0 -64 -23 -96t-57.5 -30.5t-73.5 28.5q-36 30 -54 27.5t-18 -51.5h-73z" />
    <glyph glyph-name="uni0304" unicode="&#x304;" horiz-adv-x="0" 
d="M-290 575v73h270v-73h-270z" />
    <glyph glyph-name="uni0306" unicode="&#x306;" horiz-adv-x="0" 
d="M-169 557q-69 0 -109 35.5t-40 99.5h81q0 -65 68 -65t68 65h81q0 -64 -39.5 -99.5t-109.5 -35.5z" />
    <glyph glyph-name="uni0307" unicode="&#x307;" horiz-adv-x="0" 
d="M-82 564q-26 0 -44.5 18t-18.5 44t18.5 44.5t44.5 18.5t44 -18.5t18 -44.5t-18 -44t-44 -18z" />
    <glyph glyph-name="uni0308" unicode="&#x308;" horiz-adv-x="0" 
d="M-262 566q-22 0 -37.5 15.5t-15.5 37.5t15.5 37t37.5 15t37 -15t15 -37t-15 -37.5t-37 -15.5zM-72 566q-22 0 -37.5 15.5t-15.5 37.5t15.5 37t37.5 15t37 -15t15 -37t-15 -37.5t-37 -15.5z" />
    <glyph glyph-name="uni030A" unicode="&#x30a;" horiz-adv-x="0" 
d="M-134 546q-50 0 -81.5 30.5t-31.5 76.5t31.5 76t81.5 30t81.5 -30t31.5 -76t-31.5 -76.5t-81.5 -30.5zM-134 607q23 0 35.5 13t12.5 33t-12.5 32.5t-35.5 12.5q-22 0 -34.5 -13t-12.5 -32q0 -20 12.5 -33t34.5 -13z" />
    <glyph glyph-name="uni030B" unicode="&#x30b;" horiz-adv-x="0" 
d="M-350 565h88l79 133h-94zM-197 565h88l89 133h-94z" />
    <glyph glyph-name="uni030C" unicode="&#x30c;" horiz-adv-x="0" 
d="M-113 700h93l-106 -135h-96l-106 135h93l61 -81z" />
    <glyph glyph-name="uni0312" unicode="&#x312;" horiz-adv-x="0" 
d="M-85 965l-30 -180h85l10 180h-65z" />
    <glyph glyph-name="uni0326" unicode="&#x326;" horiz-adv-x="0" 
d="M-50 -248l30 180h-85l-10 -180h65z" />
    <glyph glyph-name="uni0327" unicode="&#x327;" horiz-adv-x="0" 
d="M-105 -45q38 -8 61.5 -29t23.5 -51q0 -103 -210 -91v66q134 -10 134 31q0 31 -83 36v83h74v-45z" />
    <glyph glyph-name="uni0328" unicode="&#x328;" horiz-adv-x="0" 
d="M-88 -213q-41 0 -64 21.5t-23 58.5q0 63 70 133h83q-68 -65 -68 -114q-1 -15 7 -22.5t24 -7.5q20 0 37 8v-64q-33 -13 -66 -13z" />
    <glyph glyph-name="uni0394" unicode="&#x394;" horiz-adv-x="638" 
d="M371 700l259 -700h-622l258 700h105zM138 87h362l-181 504z" />
    <glyph glyph-name="uni03A9" unicode="&#x3a9;" horiz-adv-x="795" 
d="M760 355q0 -83 -36 -152.5t-99 -114.5h123v-88h-275v88q86 24 140.5 96t54.5 166q0 116 -77.5 194.5t-192.5 78.5t-192.5 -78.5t-77.5 -194.5q0 -95 53.5 -166.5t140.5 -95.5v-88h-274v88h122q-63 45 -99 114.5t-36 152.5q0 150 105 254t258 104q152 0 257 -104t105 -254
z" />
    <glyph glyph-name="pi" unicode="&#x3c0;" horiz-adv-x="655" 
d="M628 500v-83h-82v-417h-87v417h-259v-417h-87v417h-85v83h600z" />
    <glyph glyph-name="uni0401" unicode="&#x401;" horiz-adv-x="530" 
d="M187 766q-22 0 -37.5 15.5t-15.5 37.5t15.5 37t37.5 15t37 -15t15 -37t-15 -37.5t-37 -15.5zM377 766q-22 0 -37.5 15.5t-15.5 37.5t15.5 37t37.5 15t37 -15t15 -37t-15 -37.5t-37 -15.5zM168 88h325v-88h-418v700h413v-88h-320v-215h295v-87h-295v-222z" />
    <glyph glyph-name="uni0402" unicode="&#x402;" horiz-adv-x="700" 
d="M451 470q85 0 137 -49t52 -143v-104q0 -97 -49 -143.5t-144 -39.5v86q54 -5 77 17.5t23 79.5v100q0 112 -105 112q-71 0 -143 -28v-358h-93v612h-188v88h497v-88h-216v-172q72 30 152 30z" />
    <glyph glyph-name="uni0403" unicode="&#x403;" horiz-adv-x="485" 
d="M399 899l-101 -132h-84l80 132h105zM468 700v-88h-300v-612h-93v700h393z" />
    <glyph glyph-name="uni0404" unicode="&#x404;" horiz-adv-x="735" 
d="M400 78q72 0 132 34.5t89 91.5l81 -46q-43 -78 -124 -124.5t-178 -46.5q-158 0 -260 105t-102 258q0 154 102 258.5t260 104.5q96 0 177 -46t125 -124l-81 -47q-30 58 -89.5 92.5t-131.5 34.5q-109 0 -181 -64t-86 -165h360v-87h-360q14 -101 86 -165t181 -64z" />
    <glyph glyph-name="uni0405" unicode="&#x405;" horiz-adv-x="578" 
d="M301 -13q-98 0 -167.5 46t-97.5 126l80 46q41 -127 187 -127q72 0 110 29.5t38 78.5q0 50 -38 75t-127 53q-44 14 -67 22.5t-57.5 26t-51.5 36t-30.5 48.5t-13.5 68q0 91 64 144.5t156 53.5q83 0 144.5 -42t92.5 -111l-78 -45q-45 108 -159 108q-57 0 -92 -28t-35 -76
q0 -46 33 -70t114 -50q29 -9 41 -13t37.5 -14t37.5 -16t32.5 -17t30.5 -21t23.5 -24.5t19.5 -29.5t10.5 -34.5t4.5 -41.5q0 -92 -67 -146.5t-175 -54.5z" />
    <glyph glyph-name="uni0406" unicode="&#x406;" horiz-adv-x="243" 
d="M75 700h93v-700h-93v700z" />
    <glyph glyph-name="uni0407" unicode="&#x407;" horiz-adv-x="243" 
d="M26 766q-22 0 -37.5 15.5t-15.5 37.5t15.5 37t37.5 15t37 -15t15 -37t-15 -37.5t-37 -15.5zM216 766q-22 0 -37.5 15.5t-15.5 37.5t15.5 37t37.5 15t37 -15t15 -37t-15 -37.5t-37 -15.5zM75 700h93v-700h-93v700z" />
    <glyph glyph-name="uni0408" unicode="&#x408;" horiz-adv-x="558" 
d="M257 -13q-76 0 -134 32t-85 93l79 46q31 -80 140 -80q67 0 105 32t38 95v495h92v-495q0 -105 -66.5 -161.5t-168.5 -56.5z" />
    <glyph glyph-name="uni0409" unicode="&#x409;" horiz-adv-x="984" 
d="M730 413q92 0 155.5 -59t63.5 -148t-63.5 -147.5t-155.5 -58.5h-234v612h-251v-309q0 -94 -17.5 -157.5t-50 -96t-72 -44t-91.5 -6.5v84q69 -9 103.5 39.5t34.5 180.5v397h437v-287h141zM730 87q54 0 90 33t36 86t-36 86.5t-90 33.5h-141v-239h141z" />
    <glyph glyph-name="uni040A" unicode="&#x40a;" horiz-adv-x="973" 
d="M719 413q92 0 155.5 -59t63.5 -148t-63.5 -147.5t-155.5 -58.5h-234v326h-317v-326h-93v700h93v-287h317v287h93v-287h141zM719 87q54 0 90 33t36 86t-36.5 86.5t-89.5 33.5h-141v-239h141z" />
    <glyph glyph-name="uni040B" unicode="&#x40b;" horiz-adv-x="705" 
d="M451 470q85 0 137 -49t52 -143v-278h-93v274q0 112 -105 112q-71 0 -143 -28v-358h-93v612h-188v88h497v-88h-216v-172q72 30 152 30z" />
    <glyph glyph-name="uni040C" unicode="&#x40c;" horiz-adv-x="592" 
d="M419 899l-101 -132h-84l80 132h105zM584 0h-114l-302 336v-336h-93v700h93v-316l292 316h114l-309 -340z" />
    <glyph glyph-name="uni040E" unicode="&#x40e;" horiz-adv-x="580" 
d="M430 850v-76h-270v76h270zM476 700h94l-225 -534q-38 -90 -97 -130.5t-144 -35.5v86q58 -6 94 17t60 79l7 16l-237 502h94l186 -400z" />
    <glyph glyph-name="uni040F" unicode="&#x40f;" horiz-adv-x="658" 
d="M490 700h93v-700h-208v-134h-92v134h-208v700h93v-612h322v612z" />
    <glyph glyph-name="uni0410" unicode="&#x410;" horiz-adv-x="643" 
d="M536 0l-57 157h-315l-57 -157h-99l261 700h105l261 -700h-99zM196 244h251l-126 345z" />
    <glyph glyph-name="uni0411" unicode="&#x411;" horiz-adv-x="585" 
d="M338 425q91 0 154 -61.5t63 -150.5q0 -91 -62.5 -152t-154.5 -61h-263v700h420v-88h-327v-187h170zM338 87q52 0 88.5 36t36.5 90q0 53 -36.5 89t-88.5 36h-170v-251h170z" />
    <glyph glyph-name="uni0412" unicode="&#x412;" horiz-adv-x="615" 
d="M475 363q48 -23 76.5 -66t28.5 -99q0 -84 -59 -141t-144 -57h-302v700h280q82 0 139 -55t57 -136q0 -93 -76 -146zM355 613h-187v-214h187q44 0 74 31t30 76q0 44 -30.5 75.5t-73.5 31.5zM377 87q47 0 79 33t32 81q0 47 -32.5 80t-78.5 33h-209v-227h209z" />
    <glyph glyph-name="uni0413" unicode="&#x413;" horiz-adv-x="485" 
d="M468 700v-88h-300v-612h-93v700h393z" />
    <glyph glyph-name="uni0414" unicode="&#x414;" horiz-adv-x="695" 
d="M588 88h75v-222h-93v134h-462v-134h-93v222h61q65 81 65 246v366h447v-612zM181 88h314v525h-261v-281q0 -159 -53 -244z" />
    <glyph glyph-name="uni0415" unicode="&#x415;" horiz-adv-x="530" 
d="M168 88h325v-88h-418v700h413v-88h-320v-215h295v-87h-295v-222z" />
    <glyph glyph-name="uni0416" unicode="&#x416;" horiz-adv-x="868" 
d="M851 0h-106l-265 336v-336h-92v336l-265 -336h-105l280 358l-270 342h105l255 -321v321h92v-321l255 321h106l-271 -342z" />
    <glyph glyph-name="uni0417" unicode="&#x417;" horiz-adv-x="564" 
d="M415 362q54 -23 84 -67t30 -104q0 -90 -67.5 -147t-178.5 -57q-101 0 -162.5 45t-86.5 116l79 45q31 -118 170 -118q73 0 113 32.5t40 86.5t-37.5 87t-104.5 33h-82v85h59q64 0 102 31.5t38 82.5q0 50 -35.5 81.5t-98.5 31.5q-116 0 -155 -103l-78 45q63 145 233 145
q101 0 163.5 -56t62.5 -142q0 -100 -88 -153z" />
    <glyph glyph-name="uni0418" unicode="&#x418;" horiz-adv-x="678" 
d="M510 0v522l-360 -522h-75v700h93v-523l360 523h75v-700h-93z" />
    <glyph glyph-name="uni0419" unicode="&#x419;" horiz-adv-x="678" 
d="M204 775v76h270v-76h-270zM510 0v522l-360 -522h-75v700h93v-523l360 523h75v-700h-93z" />
    <glyph glyph-name="uni041A" unicode="&#x41a;" horiz-adv-x="592" 
d="M584 0h-114l-302 336v-336h-93v700h93v-316l292 316h114l-309 -340z" />
    <glyph glyph-name="uni041B" unicode="&#x41b;" horiz-adv-x="689" 
d="M14 0v84q69 -10 103.5 38.5t34.5 180.5v397h462v-700h-93v612h-276v-309q0 -94 -17.5 -157.5t-50 -95.5t-72 -43.5t-91.5 -6.5z" />
    <glyph glyph-name="uni041C" unicode="&#x41c;" horiz-adv-x="805" 
d="M730 700v-700h-92v547l-229 -381h-12l-229 380v-546h-93v700h105l223 -370l222 370h105z" />
    <glyph glyph-name="uni041D" unicode="&#x41d;" horiz-adv-x="675" 
d="M508 700h92v-700h-92v315h-340v-315h-93v700h93v-297h340v297z" />
    <glyph glyph-name="uni041E" unicode="&#x41e;" horiz-adv-x="800" 
d="M400 -13q-152 0 -257 106t-105 257q0 152 105 257.5t257 105.5t257.5 -105.5t105.5 -257.5q0 -151 -105.5 -257t-257.5 -106zM400 78q115 0 192.5 78.5t77.5 193.5q0 116 -77.5 194.5t-192.5 78.5t-192.5 -78.5t-77.5 -194.5q0 -115 77.5 -193.5t192.5 -78.5z" />
    <glyph glyph-name="uni041F" unicode="&#x41f;" horiz-adv-x="658" 
d="M583 700v-700h-93v612h-322v-612h-93v700h508z" />
    <glyph glyph-name="uni0420" unicode="&#x420;" horiz-adv-x="590" 
d="M329 700q97 0 161.5 -64.5t64.5 -160.5q0 -95 -64.5 -160t-161.5 -65h-161v-250h-93v700h254zM329 337q58 0 96 39.5t38 98.5q0 60 -38 99t-96 39h-161v-276h161z" />
    <glyph glyph-name="uni0421" unicode="&#x421;" horiz-adv-x="739" 
d="M404 -13q-159 0 -262.5 105t-103.5 258t103.5 258t262.5 105q96 0 176.5 -46t125.5 -124l-81 -47q-30 58 -89.5 92.5t-131.5 34.5q-121 0 -197.5 -78t-76.5 -195q0 -116 76.5 -194t197.5 -78q72 0 131.5 34.5t89.5 91.5l81 -46q-44 -78 -125 -124.5t-177 -46.5z" />
    <glyph glyph-name="uni0422" unicode="&#x422;" horiz-adv-x="540" 
d="M523 700v-88h-207v-612h-92v612h-206v88h505z" />
    <glyph glyph-name="uni0423" unicode="&#x423;" horiz-adv-x="580" 
d="M476 700h94l-225 -534q-38 -90 -97 -130.5t-144 -35.5v86q58 -6 94 17t60 79l7 16l-237 502h94l186 -400z" />
    <glyph glyph-name="uni0424" unicode="&#x424;" horiz-adv-x="809" 
d="M782 350q0 -122 -90.5 -194t-241.5 -82v-79h-91v79q-150 10 -240.5 82t-90.5 194t90.5 194t240.5 82v79h91v-79q151 -10 241.5 -82t90.5 -194zM450 159q113 8 176 55.5t63 135.5t-63 135.5t-176 55.5v-382zM120 350q0 -87 63 -134.5t176 -55.5v381q-113 -8 -176 -55.5
t-63 -135.5z" />
    <glyph glyph-name="uni0425" unicode="&#x425;" horiz-adv-x="590" 
d="M573 0h-106l-172 276l-172 -276h-105l225 360l-212 340h105l159 -255l159 255h105l-211 -339z" />
    <glyph glyph-name="uni0426" unicode="&#x426;" horiz-adv-x="690" 
d="M583 88h75v-222h-93v134h-490v700h93v-612h322v612h93v-612z" />
    <glyph glyph-name="uni0427" unicode="&#x427;" horiz-adv-x="628" 
d="M460 700h93v-700h-93v282q-82 -39 -172 -39q-102 0 -165 57.5t-63 149.5v250h93v-244q0 -57 36 -91t100 -34q90 0 171 39v330z" />
    <glyph glyph-name="uni0428" unicode="&#x428;" horiz-adv-x="948" 
d="M780 700h93v-700h-798v700h93v-612h260v612h92v-612h260v612z" />
    <glyph glyph-name="uni0429" unicode="&#x429;" horiz-adv-x="980" 
d="M873 88h75v-222h-93v134h-780v700h93v-612h260v612h92v-612h260v612h93v-612z" />
    <glyph glyph-name="uni042A" unicode="&#x42a;" horiz-adv-x="698" 
d="M183 0v612h-183v88h275v-250h161q97 0 162 -65t65 -160q0 -96 -65 -160.5t-162 -64.5h-253zM275 87h161q58 0 96 39t38 99t-38 99t-96 39h-161v-276z" />
    <glyph glyph-name="uni042B" unicode="&#x42b;" horiz-adv-x="794" 
d="M75 0v700h93v-250h161q97 0 161.5 -65t64.5 -160q0 -96 -64.5 -160.5t-161.5 -64.5h-254zM626 0v700h93v-700h-93zM168 87h161q58 0 96 39t38 99t-38 99t-96 39h-161v-276z" />
    <glyph glyph-name="uni042C" unicode="&#x42c;" horiz-adv-x="590" 
d="M329 450q97 0 161.5 -65t64.5 -160q0 -96 -64.5 -160.5t-161.5 -64.5h-254v700h93v-250h161zM329 87q58 0 96 39t38 99q0 59 -38 98.5t-96 39.5h-161v-276h161z" />
    <glyph glyph-name="uni042D" unicode="&#x42d;" horiz-adv-x="735" 
d="M335 713q158 0 260 -104.5t102 -258.5q0 -153 -102 -258t-260 -105q-97 0 -178 46.5t-124 124.5l81 46q29 -57 89 -91.5t132 -34.5q109 0 181 64t86 165h-360v87h360q-14 101 -86 165t-181 64q-72 0 -131.5 -34.5t-89.5 -92.5l-81 47q44 78 125 124t177 46z" />
    <glyph glyph-name="uni042E" unicode="&#x42e;" horiz-adv-x="1045" 
d="M645 713q152 0 257.5 -105.5t105.5 -257.5q0 -151 -105.5 -257t-257.5 -106q-142 0 -243 94.5t-114 234.5h-120v-316h-93v700h93v-296h123q19 133 118 221t236 88zM645 78q115 0 192.5 78.5t77.5 193.5q0 116 -77.5 194.5t-192.5 78.5t-192.5 -78.5t-77.5 -194.5
q0 -115 77.5 -193.5t192.5 -78.5z" />
    <glyph glyph-name="uni042F" unicode="&#x42f;" horiz-adv-x="621" 
d="M546 700v-700h-92v268h-139l-181 -268h-105l186 274q-72 17 -119 76t-47 133q0 90 63.5 153.5t153.5 63.5h280zM266 352h188v261h-188q-51 0 -88 -38t-37 -92t37 -92.5t88 -38.5z" />
    <glyph glyph-name="uni0430" unicode="&#x430;" 
d="M480 500h87v-500h-87v86q-65 -99 -189 -99q-105 0 -179 76.5t-74 186.5t74 186.5t179 76.5q124 0 189 -99v86zM302 71q76 0 127 51.5t51 127.5t-51 127.5t-127 51.5q-75 0 -126 -51.5t-51 -127.5t51 -127.5t126 -51.5z" />
    <glyph glyph-name="uni0431" unicode="&#x431;" horiz-adv-x="567" 
d="M293 -13q-111 0 -183 73t-72 188q0 128 37.5 197t153.5 125q21 10 57.5 26t53.5 24.5t38 23t31.5 32t15.5 40.5l70 -40q-3 -16 -8 -29.5t-14.5 -26t-16.5 -21.5t-23.5 -19.5t-24 -15.5t-29 -15t-29 -13.5t-33.5 -14t-32 -13.5q-68 -29 -99.5 -59t-45.5 -76q32 40 80 59
t96 19q94 0 159.5 -64t65.5 -165q0 -102 -70 -168.5t-178 -66.5zM293 71q70 0 115.5 43t45.5 108q0 67 -43.5 109.5t-114.5 42.5q-64 0 -115.5 -40.5t-51.5 -106.5q0 -68 47 -112t117 -44z" />
    <glyph glyph-name="uni0432" unicode="&#x432;" horiz-adv-x="504" 
d="M399 257q77 -32 77 -116q0 -62 -41.5 -101.5t-118.5 -39.5h-250v500h230q75 0 116 -37.5t41 -98.5q0 -72 -54 -107zM292 422h-141v-131h141q76 0 76 67q0 64 -76 64zM311 79q38 0 58.5 18t20.5 51q0 31 -20.5 48.5t-58.5 17.5h-160v-135h160z" />
    <glyph glyph-name="uni0433" unicode="&#x433;" horiz-adv-x="404" 
d="M394 500v-84h-241v-416h-87v500h328z" />
    <glyph glyph-name="uni0434" unicode="&#x434;" horiz-adv-x="593" 
d="M496 83h69v-217h-86v134h-375v-134h-86v217h61q48 66 48 185v232h369v-417zM178 83h232v336h-197v-151q0 -112 -35 -185z" />
    <glyph glyph-name="uni0435" unicode="&#x435;" horiz-adv-x="583" 
d="M127 210q13 -67 61.5 -104t119.5 -37q99 0 144 73l74 -42q-73 -113 -220 -113q-119 0 -193.5 74.5t-74.5 188.5q0 113 73 188t189 75q110 0 179.5 -77.5t69.5 -186.5q0 -19 -3 -39h-419zM300 431q-70 0 -116 -39.5t-57 -105.5h334q-11 71 -56 108t-105 37z" />
    <glyph glyph-name="uni0436" unicode="&#x436;" horiz-adv-x="698" 
d="M681 0h-102l-187 237v-237h-86v237l-187 -237h-101l209 258l-199 242h101l177 -221v221h86v-221l177 221h102l-200 -242z" />
    <glyph glyph-name="uni0437" unicode="&#x437;" horiz-adv-x="447" 
d="M336 256q83 -34 83 -119q0 -63 -50 -106.5t-142 -43.5q-150 0 -201 120l73 43q29 -82 129 -82q50 0 77.5 21.5t27.5 55.5q0 30 -22.5 49t-60.5 19h-73v79h54q38 0 59 18.5t21 50.5t-24.5 52t-67.5 20q-84 0 -114 -71l-71 41q53 110 185 110q82 0 129.5 -42t47.5 -103
q0 -76 -60 -112z" />
    <glyph glyph-name="uni0438" unicode="&#x438;" horiz-adv-x="565" 
d="M429 500h70v-500h-86v351l-277 -351h-70v500h86v-351z" />
    <glyph glyph-name="uni0439" unicode="&#x439;" horiz-adv-x="565" 
d="M148 575v76h270v-76h-270zM429 500h70v-500h-86v351l-277 -351h-70v500h86v-351z" />
    <glyph glyph-name="uni043A" unicode="&#x43a;" horiz-adv-x="504" 
d="M489 0h-108l-228 237v-237h-87v500h87v-221l216 221h112l-239 -242z" />
    <glyph glyph-name="uni043B" unicode="&#x43b;" horiz-adv-x="549" 
d="M483 500v-500h-87v416h-197v-204q0 -123 -49.5 -171.5t-139.5 -40.5v82q51 -7 76.5 22.5t25.5 109.5v286h371z" />
    <glyph glyph-name="uni043C" unicode="&#x43c;" 
d="M566 500v-500h-85v363l-159 -256h-11l-159 256v-363h-86v500h93l157 -253l157 253h93z" />
    <glyph glyph-name="uni043D" unicode="&#x43d;" horiz-adv-x="565" 
d="M412 500h87v-500h-87v209h-259v-209h-87v500h87v-208h259v208z" />
    <glyph glyph-name="uni043E" unicode="&#x43e;" horiz-adv-x="602" 
d="M301 -13q-110 0 -186.5 76t-76.5 187t76.5 187t186.5 76t187 -76t77 -187t-77 -187t-187 -76zM301 72q75 0 126 51t51 127t-51 127t-126 51q-74 0 -125 -51t-51 -127t51 -127t125 -51z" />
    <glyph glyph-name="uni043F" unicode="&#x43f;" horiz-adv-x="565" 
d="M499 500v-500h-87v417h-259v-417h-87v500h433z" />
    <glyph glyph-name="uni0440" unicode="&#x440;" 
d="M342 513q105 0 179 -76.5t74 -186.5t-74 -186.5t-179 -76.5q-124 0 -189 99v-286h-87v700h87v-86q65 99 189 99zM331 71q75 0 126 51.5t51 127.5t-51 127.5t-126 51.5q-76 0 -127 -51.5t-51 -127.5t51 -127.5t127 -51.5z" />
    <glyph glyph-name="uni0441" unicode="&#x441;" horiz-adv-x="547" 
d="M301 -13q-113 0 -188 75.5t-75 187.5t75 187.5t188 75.5q74 0 133 -35.5t88 -95.5l-73 -42q-19 40 -58.5 64t-89.5 24q-75 0 -125.5 -51t-50.5 -127q0 -75 50.5 -126t125.5 -51q50 0 90 23.5t61 63.5l74 -43q-32 -59 -92 -94.5t-133 -35.5z" />
    <glyph glyph-name="uni0442" unicode="&#x442;" horiz-adv-x="448" 
d="M438 500v-84h-170v-416h-87v416h-171v84h428z" />
    <glyph glyph-name="uni0443" unicode="&#x443;" horiz-adv-x="515" 
d="M415 500h93l-204 -531q-32 -85 -90 -129.5t-132 -39.5v81q92 -7 135 100l8 18l-217 501h92l171 -392z" />
    <glyph glyph-name="uni0444" unicode="&#x444;" horiz-adv-x="675" 
d="M638 250q0 -103 -70 -175t-187 -85v-190h-86v190q-117 13 -187 85t-70 175t70 175t187 85v190h86v-190q117 -13 187 -85t70 -175zM124 250q0 -69 45.5 -117t125.5 -59v352q-80 -10 -125.5 -58t-45.5 -118zM381 74q80 11 125 59t45 117t-45 117t-125 59v-352z" />
    <glyph glyph-name="uni0445" unicode="&#x445;" horiz-adv-x="515" 
d="M500 0h-102l-140 189l-141 -189h-102l192 257l-181 243h103l129 -174l129 174h102l-180 -242z" />
    <glyph glyph-name="uni0446" unicode="&#x446;" horiz-adv-x="595" 
d="M486 83h82v-217h-86v134h-416v500h87v-417h246v417h87v-417z" />
    <glyph glyph-name="uni0447" unicode="&#x447;" horiz-adv-x="534" 
d="M381 500h87v-500h-87v180q-60 -26 -135 -26q-96 0 -148.5 45.5t-52.5 134.5v166h87v-161q0 -56 30.5 -80t89.5 -24q71 0 129 26v239z" />
    <glyph glyph-name="uni0448" unicode="&#x448;" horiz-adv-x="818" 
d="M664 500h87v-500h-685v500h87v-417h212v417h87v-417h212v417z" />
    <glyph glyph-name="uni0449" unicode="&#x449;" horiz-adv-x="843" 
d="M746 83h69v-217h-86v134h-663v500h87v-417h210v417h87v-417h209v417h87v-417z" />
    <glyph glyph-name="uni044A" unicode="&#x44a;" horiz-adv-x="551" 
d="M350 320q74 0 124 -45t50 -115t-50 -115t-124 -45h-211v416h-139v84h226v-180h124zM350 81q37 0 62.5 21.5t25.5 57.5t-25.5 58t-62.5 22h-124v-159h124z" />
    <glyph glyph-name="uni044B" unicode="&#x44b;" horiz-adv-x="670" 
d="M277 320q75 0 124.5 -44.5t49.5 -115.5t-49.5 -115.5t-124.5 -44.5h-211v500h87v-180h124zM516 500h87v-500h-87v500zM277 81q37 0 62.5 21.5t25.5 57.5t-25.5 58t-62.5 22h-124v-159h124z" />
    <glyph glyph-name="uni044C" unicode="&#x44c;" horiz-adv-x="479" 
d="M277 320q75 0 124.5 -44.5t49.5 -115.5t-49.5 -115.5t-124.5 -44.5h-211v500h87v-180h124zM277 81q37 0 62.5 21.5t25.5 57.5t-25.5 58t-62.5 22h-124v-159h124z" />
    <glyph glyph-name="uni044D" unicode="&#x44d;" horiz-adv-x="538" 
d="M246 513q114 0 184.5 -74t70.5 -189q0 -114 -71 -188.5t-185 -74.5q-80 0 -140 35.5t-87 96.5l74 43q16 -41 55.5 -66t97.5 -25q65 0 109 38t56 100h-223v82h223q-12 62 -55 100t-108 38q-53 0 -92.5 -24.5t-58.5 -65.5l-75 43q30 61 90 96t135 35z" />
    <glyph glyph-name="uni044E" unicode="&#x44e;" horiz-adv-x="804" 
d="M503 513q110 0 186.5 -76t76.5 -187t-76.5 -187t-186.5 -76q-99 0 -171 63t-86 159h-93v-209h-87v500h87v-208h93q14 96 86.5 158.5t170.5 62.5zM503 72q74 0 125 51t51 127t-51 127t-125 51q-75 0 -126 -51t-51 -127t51 -127t126 -51z" />
    <glyph glyph-name="uni044F" unicode="&#x44f;" horiz-adv-x="506" 
d="M440 500v-500h-86v180h-73l-140 -180h-106l146 185q-56 14 -91 56t-35 98q0 69 49 115t123 46h213zM230 258h124v161h-124q-37 0 -63 -22t-26 -59q0 -36 26 -58t63 -22z" />
    <glyph glyph-name="uni0451" unicode="&#x451;" horiz-adv-x="583" 
d="M199 567q-22 0 -37.5 15.5t-15.5 37.5t15.5 37t37.5 15t37 -15t15 -37t-15 -37.5t-37 -15.5zM389 567q-22 0 -37.5 15.5t-15.5 37.5t15.5 37t37.5 15t37 -15t15 -37t-15 -37.5t-37 -15.5zM127 210q13 -67 61.5 -104t119.5 -37q99 0 144 73l74 -42q-73 -113 -220 -113
q-119 0 -193.5 74.5t-74.5 188.5q0 113 73 188t189 75q110 0 179.5 -77.5t69.5 -186.5q0 -19 -3 -39h-419zM300 431q-70 0 -116 -39.5t-57 -105.5h334q-11 71 -56 108t-105 37z" />
    <glyph glyph-name="uni0452" unicode="&#x452;" horiz-adv-x="573" 
d="M324 513q88 0 141 -55.5t53 -150.5v-337q0 -97 -49 -143.5t-144 -39.5v84q55 -5 80.5 18t25.5 81v332q0 61 -33 94.5t-91 33.5q-65 0 -105 -40.5t-40 -124.5v-265h-87v569h-67v64h67v67h87v-67h143v-64h-143v-141q53 85 162 85z" />
    <glyph glyph-name="uni0453" unicode="&#x453;" horiz-adv-x="404" 
d="M334 700l-101 -132h-84l80 132h105zM394 500v-84h-241v-416h-87v500h328z" />
    <glyph glyph-name="uni0454" unicode="&#x454;" horiz-adv-x="538" 
d="M446 162l74 -43q-27 -61 -87 -96.5t-140 -35.5q-114 0 -185 74.5t-71 188.5q0 115 70.5 189t184.5 74q75 0 135 -35t90 -96l-75 -43q-19 41 -58.5 65.5t-92.5 24.5q-65 0 -108 -38t-55 -100h223v-82h-223q12 -62 56 -100t109 -38q58 0 97.5 25t55.5 66z" />
    <glyph glyph-name="uni0455" unicode="&#x455;" horiz-adv-x="458" 
d="M141 365q0 -29 29 -46.5t70 -28t82 -24t70 -46t29 -83.5q0 -68 -52.5 -109t-134.5 -41q-73 0 -125 32t-74 85l75 43q12 -36 45 -57t79 -21q43 0 71 16.5t28 51.5q0 29 -29 46.5t-70 28t-82 24.5t-70 46t-29 82q0 65 50.5 107t126.5 42q61 0 108.5 -27.5t71.5 -76.5
l-73 -41q-27 64 -107 64q-37 0 -63 -17.5t-26 -49.5z" />
    <glyph glyph-name="uni0456" unicode="&#x456;" horiz-adv-x="220" 
d="M110 591q-25 0 -42 17t-17 41t17 41.5t42 17.5q24 0 41 -17.5t17 -41.5t-17 -41t-41 -17zM66 0v500h87v-500h-87z" />
    <glyph glyph-name="uni0457" unicode="&#x457;" horiz-adv-x="220" 
d="M15 566q-22 0 -37.5 15.5t-15.5 37.5t15.5 37t37.5 15t37 -15t15 -37t-15 -37.5t-37 -15.5zM205 566q-22 0 -37.5 15.5t-15.5 37.5t15.5 37t37.5 15t37 -15t15 -37t-15 -37.5t-37 -15.5zM66 0v500h87v-500h-87z" />
    <glyph glyph-name="uni0458" unicode="&#x458;" horiz-adv-x="241" 
d="M132 591q-25 0 -42 17t-17 41t17 41.5t42 17.5q24 0 41 -17.5t17 -41.5t-17 -41t-41 -17zM88 -30v530h87v-530q0 -97 -49 -143.5t-144 -39.5v84q55 -5 80.5 18t25.5 81z" />
    <glyph glyph-name="uni0459" unicode="&#x459;" horiz-adv-x="781" 
d="M591 303q71 0 116.5 -41t45.5 -111t-45.5 -110.5t-116.5 -40.5h-205v416h-187v-204q0 -122 -49.5 -171t-139.5 -43v82q51 -6 76.5 24t25.5 110v286h361v-197h118zM592 81q33 0 55.5 17.5t22.5 52.5t-22.5 53t-55.5 18h-119v-141h119z" />
    <glyph glyph-name="uni045A" unicode="&#x45a;" horiz-adv-x="789" 
d="M598 303q71 0 117.5 -41t46.5 -111q0 -69 -47 -110t-117 -41h-206v220h-241v-220h-87v500h87v-197h241v197h87v-197h119zM598 81q34 0 56 17.5t22 52.5t-22 53t-56 18h-119v-141h119z" />
    <glyph glyph-name="uni045B" unicode="&#x45b;" horiz-adv-x="573" 
d="M324 513q88 0 141 -55.5t53 -150.5v-307h-87v302q0 61 -33 94.5t-91 33.5q-65 0 -105 -40.5t-40 -124.5v-265h-87v569h-67v64h67v67h87v-67h143v-64h-143v-141q53 85 162 85z" />
    <glyph glyph-name="uni045C" unicode="&#x45c;" horiz-adv-x="504" 
d="M379 700l-101 -132h-84l80 132h105zM489 0h-108l-228 237v-237h-87v500h87v-221l216 221h112l-239 -242z" />
    <glyph glyph-name="uni045E" unicode="&#x45e;" horiz-adv-x="515" 
d="M391 651v-76h-270v76h270zM415 500h93l-204 -531q-32 -85 -90 -129.5t-132 -39.5v81q92 -7 135 100l8 18l-217 501h92l171 -392z" />
    <glyph glyph-name="uni045F" unicode="&#x45f;" horiz-adv-x="565" 
d="M412 500h87v-500h-173v-134h-86v134h-174v500h87v-417h259v417z" />
    <glyph glyph-name="uni0490" unicode="&#x490;" horiz-adv-x="485" 
d="M375 820h93v-208h-300v-612h-93v700h300v120z" />
    <glyph glyph-name="uni0491" unicode="&#x491;" horiz-adv-x="404" 
d="M308 603h86v-187h-241v-416h-87v500h242v103z" />
    <glyph glyph-name="Wgrave" unicode="&#x1e80;" horiz-adv-x="1000" 
d="M577 768l-80 132h-105l101 -132h84zM226 0l-201 700h98l160 -576l170 576h94l170 -576l160 576h98l-201 -700h-108l-166 559l-166 -559h-108z" />
    <glyph glyph-name="wgrave" unicode="&#x1e81;" horiz-adv-x="770" 
d="M452 568h-84l-101 132h105zM655 500h91l-155 -500h-89l-117 370l-117 -370h-89l-155 500h91l110 -380l118 380h84l118 -381z" />
    <glyph glyph-name="Wacute" unicode="&#x1e82;" horiz-adv-x="1000" 
d="M450 768h84l101 132h-105zM226 0l-201 700h98l160 -576l170 576h94l170 -576l160 576h98l-201 -700h-108l-166 559l-166 -559h-108z" />
    <glyph glyph-name="wacute" unicode="&#x1e83;" horiz-adv-x="770" 
d="M510 700l-101 -132h-84l80 132h105zM655 500h91l-155 -500h-89l-117 370l-117 -370h-89l-155 500h91l110 -380l118 380h84l118 -381z" />
    <glyph glyph-name="Wdieresis" unicode="&#x1e84;" horiz-adv-x="1000" 
d="M415 766q-22 0 -37.5 15.5t-15.5 37.5t15.5 37t37.5 15t37 -15t15 -37t-15 -37.5t-37 -15.5zM605 766q-22 0 -37.5 15.5t-15.5 37.5t15.5 37t37.5 15t37 -15t15 -37t-15 -37.5t-37 -15.5zM226 0l-201 700h98l160 -576l170 576h94l170 -576l160 576h98l-201 -700h-108
l-166 559l-166 -559h-108z" />
    <glyph glyph-name="wdieresis" unicode="&#x1e85;" horiz-adv-x="770" 
d="M290 566q-22 0 -37.5 15.5t-15.5 37.5t15.5 37t37.5 15t37 -15t15 -37t-15 -37.5t-37 -15.5zM480 566q-22 0 -37.5 15.5t-15.5 37.5t15.5 37t37.5 15t37 -15t15 -37t-15 -37.5t-37 -15.5zM655 500h91l-155 -500h-89l-117 370l-117 -370h-89l-155 500h91l110 -380l118 380
h84l118 -381z" />
    <glyph glyph-name="Ygrave" unicode="&#x1ef2;" horiz-adv-x="604" 
d="M366 768h-84l-101 132h105zM596 700l-248 -417v-283h-93v284l-247 416h104l190 -328l190 328h104z" />
    <glyph glyph-name="ygrave" unicode="&#x1ef3;" horiz-adv-x="515" 
d="M323 568h-84l-101 132h105zM415 500h93l-204 -531q-32 -85 -89.5 -129.5t-132.5 -39.5v81q92 -7 135 102l9 19l-218 498h93l170 -392z" />
    <glyph glyph-name="endash" unicode="&#x2013;" horiz-adv-x="655" 
d="M75 265v84h505v-84h-505z" />
    <glyph glyph-name="emdash" unicode="&#x2014;" horiz-adv-x="755" 
d="M75 265v84h605v-84h-605z" />
    <glyph glyph-name="quoteleft" unicode="&#x2018;" horiz-adv-x="253" 
d="M57 457l65 243h75l-40 -243h-100z" />
    <glyph glyph-name="quoteright" unicode="&#x2019;" horiz-adv-x="253" 
d="M196 701l-65 -243h-75l40 243h100z" />
    <glyph glyph-name="quotesinglbase" unicode="&#x201a;" horiz-adv-x="253" 
d="M196 103l-65 -243h-75l40 243h100z" />
    <glyph glyph-name="quotedblleft" unicode="&#x201c;" horiz-adv-x="408" 
d="M57 457l65 243h75l-40 -243h-100zM212 457l65 243h75l-40 -243h-100z" />
    <glyph glyph-name="quotedblright" unicode="&#x201d;" horiz-adv-x="408" 
d="M196 701l-65 -243h-75l40 243h100zM351 701l-65 -243h-75l40 243h100z" />
    <glyph glyph-name="quotedblbase" unicode="&#x201e;" horiz-adv-x="408" 
d="M196 103l-65 -243h-75l40 243h100zM351 103l-65 -243h-75l40 243h100z" />
    <glyph glyph-name="dagger" unicode="&#x2020;" horiz-adv-x="480" 
d="M425 545v-84h-141v-461h-87v461h-142v84h142v155h87v-155h141z" />
    <glyph glyph-name="daggerdbl" unicode="&#x2021;" horiz-adv-x="480" 
d="M425 461h-141v-222h141v-84h-141v-155h-87v155h-142v84h142v222h-142v84h142v155h87v-155h141v-84z" />
    <glyph glyph-name="bullet" unicode="&#x2022;" horiz-adv-x="320" 
d="M161 238q-47 0 -80 33t-33 80t33 79.5t80 32.5t79.5 -32.5t32.5 -79.5t-32.5 -80t-79.5 -33z" />
    <glyph glyph-name="ellipsis" unicode="&#x2026;" horiz-adv-x="648" 
d="M121 -11q-27 0 -46 19t-19 46t19 46t46 19q28 0 46.5 -19t18.5 -46t-18.5 -46t-46.5 -19zM324 -11q-27 0 -46 19t-19 46t19 46t46 19q28 0 46.5 -19t18.5 -46t-18.5 -46t-46.5 -19zM526 -11q-27 0 -46 19t-19 46t19 46t46 19q28 0 46.5 -19t18.5 -46t-18.5 -46t-46.5 -19
z" />
    <glyph glyph-name="perthousand" unicode="&#x2030;" horiz-adv-x="1089" 
d="M213 403q-68 0 -113 45t-45 110q0 64 45.5 109.5t112.5 45.5q68 0 113 -45t45 -110t-44.5 -110t-113.5 -45zM213 476q35 0 57.5 24t22.5 58t-22.5 57.5t-57.5 23.5t-57.5 -23.5t-22.5 -57.5q0 -35 22.5 -58.5t57.5 -23.5zM102 99l465 520l49 -27l-466 -521zM515 -12
q-68 0 -113 45t-45 110t45 110t113 45t113 -45t45 -110t-45 -110t-113 -45zM876 -12q-68 0 -113 45t-45 110t45 110t113 45t113 -45t45 -110t-45 -110t-113 -45zM515 62q35 0 57.5 23.5t22.5 57.5t-22.5 57.5t-57.5 23.5t-57.5 -23.5t-22.5 -57.5t22.5 -57.5t57.5 -23.5z
M876 62q35 0 57.5 23.5t22.5 57.5t-22.5 57.5t-57.5 23.5t-57.5 -23.5t-22.5 -57.5t22.5 -57.5t57.5 -23.5z" />
    <glyph glyph-name="guilsinglleft" unicode="&#x2039;" horiz-adv-x="340" 
d="M272 492l-110 -183l110 -182h-94l-110 182l110 183h94z" />
    <glyph glyph-name="guilsinglright" unicode="&#x203a;" horiz-adv-x="340" 
d="M162 492l110 -183l-110 -182h-94l110 182l-110 183h94z" />
    <glyph glyph-name="fraction" unicode="&#x2044;" horiz-adv-x="210" 
d="M-60 0h-70l400 700h70z" />
    <glyph glyph-name="Euro" unicode="&#x20ac;" horiz-adv-x="600" 
d="M499 173l77 -44q-29 -68 -84.5 -105t-131.5 -37q-110 0 -180 74t-88 202h-73v65h67v22q0 21 1 31h-68v64h74q20 124 89.5 196t177.5 72q153 0 215 -139l-77 -44q-42 93 -138 93q-68 0 -112.5 -46t-60.5 -132h237v-64h-244q-1 -10 -1 -31v-22h245v-65h-238q14 -89 59 -137
t115 -48q99 0 139 95z" />
    <glyph glyph-name="uni20BD" unicode="&#x20bd;" horiz-adv-x="594" 
d="M356 268h-161v-81h248v-68h-248v-119h-92v119h-85v68h85v81h-85v84h85v348h253q91 0 155 -63.5t64 -153.5t-63.5 -152.5t-155.5 -62.5zM195 613v-261h161q52 0 89.5 38.5t37.5 92.5t-37 92t-90 38h-161z" />
    <glyph glyph-name="uni2116" unicode="&#x2116;" horiz-adv-x="1024" 
d="M829 402q-67 0 -112.5 45t-45.5 110t45 110t113 45t113 -45t45 -110t-44.5 -110t-113.5 -45zM510 700h93v-700h-75l-360 523v-523h-93v700h75l360 -522v522zM829 477q35 0 57 23t22 57t-22 57t-57 23t-57 -23t-22 -57t22 -57t57 -23zM683 255v83h292v-83h-292z" />
    <glyph glyph-name="trademark" unicode="&#x2122;" horiz-adv-x="468" 
d="M198 700v-43h-56v-157h-47v157h-57v43h160zM384 700h46v-200h-46v124l-56 -88h-5l-56 88v-124h-46v200h46l59 -92z" />
    <glyph glyph-name="estimated" unicode="&#x212e;" horiz-adv-x="810" 
d="M405 710q163 0 266.5 -104t103.5 -256q0 -15 -15 -15h-560q-15 0 -15 -15v-192q0 -11 7 -19q84 -89 233 -89q145 0 231 97q8 9 18 9h37q10 0 13 -6t-4 -13q-109 -117 -295 -117q-176 0 -283 103.5t-107 256.5q0 152 103.5 256t266.5 104zM625 572q0 11 -7 19
q-84 89 -213 89t-213 -89q-7 -8 -7 -19v-192q0 -15 15 -15h410q15 0 15 15v192z" />
    <glyph glyph-name="oneeighth" unicode="&#x215b;" horiz-adv-x="804" 
d="M192 300h-77v319l-88 -26l-19 65l117 42h67v-400zM524 700h70l-400 -700h-70zM718 211q63 -34 63 -104q0 -55 -40 -87.5t-107 -32.5t-107 32.5t-40 87.5q0 70 63 104q-50 30 -50 86q0 53 38.5 84.5t95.5 31.5t95.5 -31.5t38.5 -84.5q0 -56 -50 -86zM634 344
q-30 0 -46 -13.5t-16 -36.5q0 -24 16 -38.5t46 -14.5q29 0 45.5 14.5t16.5 38.5q0 23 -16.5 36.5t-45.5 13.5zM634 58q34 0 53 16t19 43t-19.5 43t-52.5 16q-34 0 -53 -15.5t-19 -43.5q0 -27 19 -43t53 -16z" />
    <glyph glyph-name="threeeighths" unicode="&#x215c;" horiz-adv-x="901" 
d="M316 418q0 -60 -40.5 -95.5t-108.5 -35.5q-107 0 -147 86l65 37q22 -51 82 -51q35 0 53.5 16t18.5 43t-20 43.5t-53 16.5h-9l-34 50l84 100h-172v72h263v-66l-84 -100q48 -10 75 -40.5t27 -75.5zM621 700h70l-400 -700h-70zM815 211q63 -34 63 -104q0 -55 -40 -87.5
t-107 -32.5t-107 32.5t-40 87.5q0 70 63 104q-50 30 -50 86q0 53 38.5 84.5t95.5 31.5t95.5 -31.5t38.5 -84.5q0 -56 -50 -86zM731 344q-30 0 -46 -13.5t-16 -36.5q0 -24 16 -38.5t46 -14.5q29 0 45.5 14.5t16.5 38.5q0 23 -16.5 36.5t-45.5 13.5zM731 58q34 0 53 16t19 43
t-19.5 43t-52.5 16q-34 0 -53 -15.5t-19 -43.5q0 -27 19 -43t53 -16z" />
    <glyph glyph-name="fiveeighths" unicode="&#x215d;" horiz-adv-x="889" 
d="M307 417q0 -60 -39 -95t-105 -35q-106 0 -146 87l65 36q23 -52 80 -52q34 0 52.5 16t18.5 44t-18.5 45.5t-52.5 17.5h-124l15 219h237v-71h-172l-5 -79h52q64 0 103 -35.5t39 -97.5zM609 700h70l-400 -700h-70zM803 211q63 -34 63 -104q0 -55 -40 -87.5t-107 -32.5
t-107 32.5t-40 87.5q0 70 63 104q-50 30 -50 86q0 53 38.5 84.5t95.5 31.5t95.5 -31.5t38.5 -84.5q0 -56 -50 -86zM719 344q-30 0 -46 -13.5t-16 -36.5q0 -24 16 -38.5t46 -14.5q29 0 45.5 14.5t16.5 38.5q0 23 -16.5 36.5t-45.5 13.5zM719 58q34 0 53 16t19 43t-19.5 43
t-52.5 16q-34 0 -53 -15.5t-19 -43.5q0 -27 19 -43t53 -16z" />
    <glyph glyph-name="seveneighths" unicode="&#x215e;" horiz-adv-x="846" 
d="M277 700v-61l-141 -339h-81l138 328h-185v72h269zM566 700h70l-400 -700h-70zM760 211q63 -34 63 -104q0 -55 -40 -87.5t-107 -32.5t-107 32.5t-40 87.5q0 70 63 104q-50 30 -50 86q0 53 38.5 84.5t95.5 31.5t95.5 -31.5t38.5 -84.5q0 -56 -50 -86zM676 344
q-30 0 -46 -13.5t-16 -36.5q0 -24 16 -38.5t46 -14.5q29 0 45.5 14.5t16.5 38.5q0 23 -16.5 36.5t-45.5 13.5zM676 58q34 0 53 16t19 43t-19.5 43t-52.5 16q-34 0 -53 -15.5t-19 -43.5q0 -27 19 -43t53 -16z" />
    <glyph glyph-name="arrowleft" unicode="&#x2190;" horiz-adv-x="813" 
d="M758 392v-84h-544l258 -258h-117l-300 300l300 300h117l-258 -258h544z" />
    <glyph glyph-name="arrowup" unicode="&#x2191;" horiz-adv-x="710" 
d="M655 400v-117l-256 256v-539h-87v540l-257 -257v117l300 300z" />
    <glyph glyph-name="arrowright" unicode="&#x2192;" horiz-adv-x="813" 
d="M458 650l300 -300l-300 -300h-117l258 258h-544v84h544l-258 258h117z" />
    <glyph glyph-name="arrowdown" unicode="&#x2193;" horiz-adv-x="710" 
d="M399 161l256 256v-117l-300 -300l-300 300v117l257 -257v540h87v-539z" />
    <glyph glyph-name="arrowboth" unicode="&#x2194;" horiz-adv-x="1055" 
d="M743 608l257 -258l-257 -257h-116l214 215h-628l215 -215h-116l-257 257l257 258h116l-215 -216h629l-215 216h116z" />
    <glyph glyph-name="arrowupdn" unicode="&#x2195;" horiz-adv-x="625" 
d="M570 450l-214 214v-628l214 214v-116l-257 -257l-258 257v116l214 -213v626l-214 -213v116l258 257l257 -257v-116z" />
    <glyph glyph-name="uni2196" unicode="&#x2196;" horiz-adv-x="640" 
d="M585 127l-61 -61l-387 387v-363l-82 82v424h424l82 -82h-363z" />
    <glyph glyph-name="uni2197" unicode="&#x2197;" horiz-adv-x="640" 
d="M161 596h424v-424l-82 -82v363l-387 -387l-61 61l387 387h-363z" />
    <glyph glyph-name="uni2198" unicode="&#x2198;" horiz-adv-x="640" 
d="M503 590l82 -82v-424h-424l-82 82h363l-387 387l61 60l387 -387v364z" />
    <glyph glyph-name="uni2199" unicode="&#x2199;" horiz-adv-x="640" 
d="M585 553l-387 -387h363l-82 -82h-424v424l82 82v-364l387 387z" />
    <glyph glyph-name="partialdiff" unicode="&#x2202;" horiz-adv-x="579" 
d="M235 713q121 0 205 -100.5t84 -262.5q0 -171 -75 -267t-191 -96q-97 0 -153.5 60.5t-56.5 152.5q0 103 60.5 167t167.5 64q85 0 160 -48q-8 107 -62 176t-145 70q-68 0 -125 -34v82q56 36 131 36zM260 71q74 0 120.5 61.5t54.5 168.5q-64 50 -153 50q-67 0 -107 -39
t-40 -111q0 -57 32 -93.5t93 -36.5z" />
    <glyph glyph-name="emptyset" unicode="&#x2205;" horiz-adv-x="804" 
d="M656 608q108 -106 108 -258q0 -150 -106 -256t-256 -106q-113 0 -204 63l-58 -71h-82l91 111q-109 107 -109 259q0 150 106 256t256 106q113 0 204 -63l58 71h83zM110 350q0 -121 83 -206l370 452q-71 48 -161 48q-122 0 -207 -85.5t-85 -208.5zM402 56q122 0 207 86
t85 208q0 121 -82 205l-370 -451q74 -48 160 -48z" />
    <glyph glyph-name="product" unicode="&#x220f;" horiz-adv-x="640" 
d="M75 -200v900h490v-900h-87v816h-316v-816h-87z" />
    <glyph glyph-name="summation" unicode="&#x2211;" horiz-adv-x="548" 
d="M45 -200v80l231 380l-216 359v81h440v-84h-339l215 -356l-229 -376h368v-84h-470z" />
    <glyph glyph-name="minus" unicode="&#x2212;" horiz-adv-x="545" 
d="M58 309v83h430v-83h-430z" />
    <glyph glyph-name="radical" unicode="&#x221a;" horiz-adv-x="655" 
d="M280 0l-132 224h-93v84h143l118 -205l233 697h91l-272 -800h-88z" />
    <glyph glyph-name="infinity" unicode="&#x221e;" horiz-adv-x="803" 
d="M581 515q72 0 120 -46.5t48 -118.5t-48 -118.5t-120 -46.5q-92 0 -179 101q-87 -101 -180 -101q-72 0 -120 46.5t-48 118.5t48 118.5t120 46.5q93 0 180 -101q87 101 179 101zM224 264q64 0 127 86q-63 86 -127 86q-37 0 -60.5 -24t-23.5 -62t23.5 -62t60.5 -24zM579 264
q37 0 60.5 24t23.5 62t-23.5 62t-60.5 24q-63 0 -126 -86q63 -86 126 -86z" />
    <glyph glyph-name="integral" unicode="&#x222b;" horiz-adv-x="440" 
d="M0 -203v86q47 -19 79.5 -2t40.5 66l104 614q16 95 72.5 129.5t143.5 11.5v-85q-54 18 -87.5 1t-41.5 -65l-104 -614q-16 -95 -71 -130t-136 -12z" />
    <glyph glyph-name="approxequal" unicode="&#x2248;" horiz-adv-x="586" 
d="M284 394q-49 28 -81.5 32t-49.5 -10t-30 -46l-68 28q26 89 89 111t157 -31q74 -40 107 -31.5t48 63.5l75 -35q-25 -88 -87.5 -110.5t-159.5 29.5zM130 190l-75 35q25 88 88.5 111t157.5 -30q50 -29 82.5 -32.5t49.5 10.5t30 46l68 -28q-26 -89 -88 -111t-159 31
q-73 39 -106 30.5t-48 -62.5z" />
    <glyph glyph-name="notequal" unicode="&#x2260;" horiz-adv-x="535" 
d="M480 410h-156l-53 -120h209v-83h-246l-64 -142h-60l64 142h-119v83h156l53 120h-209v83h246l64 142h60l-64 -142h119v-83z" />
    <glyph glyph-name="lessequal" unicode="&#x2264;" horiz-adv-x="523" 
d="M468 618v-94l-308 -107l308 -106v-94l-413 159v82zM55 85v83h413v-83h-413z" />
    <glyph glyph-name="greaterequal" unicode="&#x2265;" horiz-adv-x="523" 
d="M55 618l413 -160v-82l-413 -159v94l308 106l-308 107v94zM55 85v83h413v-83h-413z" />
    <glyph glyph-name="lozenge" unicode="&#x25ca;" horiz-adv-x="545" 
d="M234 0l-186 350l186 350h78l186 -350l-186 -350h-78zM273 104l131 246l-131 246l-132 -246z" />
    <glyph glyph-name="i.loclTRK" horiz-adv-x="220" 
d="M110 564q-26 0 -44.5 18t-18.5 44t18.5 44.5t44.5 18.5t44 -18.5t18 -44.5t-18 -44t-44 -18zM66 0v500h87v-500h-87z" />
    <glyph glyph-name="f_f_j" horiz-adv-x="802" 
d="M736 500v-530q0 -97 -49 -143.5t-144 -39.5v84q55 -5 80.5 18t25.5 81v446h-185v-416h-87v416h-186v-416h-87v416h-80v84h80v15q0 101 56.5 153t162.5 45v-84q-132 11 -132 -114v-15h186v25q0 198 218 198q43 0 103 -13v-79q-59 8 -103 8q-68 0 -99.5 -25.5t-31.5 -88.5
v-25h272z" />
    <glyph glyph-name="f_j" horiz-adv-x="530" 
d="M463 500v-530q0 -97 -49 -143.5t-143 -39.5v84q54 -5 79.5 18t25.5 81v446h-185v-416h-87v416h-80v84h80v15q0 198 219 198q41 0 103 -13v-79q-61 8 -103 8q-68 0 -100 -25.5t-32 -88.5v-15h272z" />
    <glyph glyph-name="uni0414.loclBGR" horiz-adv-x="710" 
d="M618 88h70v-222h-93v134h-480v-134h-92v222h69l211 612h105zM189 88h332l-166 502z" />
    <glyph glyph-name="uni041B.loclBGR" horiz-adv-x="621" 
d="M258 700h105l251 -700h-101l-202 584l-203 -584h-100z" />
    <glyph glyph-name="uni0424.loclBGR" horiz-adv-x="849" 
d="M812 350q0 -152 -94 -249.5t-248 -110.5v-90h-90v90q-154 13 -248 110.5t-94 249.5t94 249.5t248 110.5v90h90v-90q154 -13 248 -110.5t94 -249.5zM130 350q0 -117 66.5 -190t183.5 -85v551q-117 -13 -183.5 -86t-66.5 -190zM470 75q117 12 183 85t66 190t-66 190
t-183 86v-551z" />
    <glyph glyph-name="uni0414.ss01" horiz-adv-x="695" 
d="M588 88h75v-88h-648v88h61q65 81 65 246v366h447v-612zM181 88h314v525h-261v-281q0 -159 -53 -244z" />
    <glyph glyph-name="uni0426.ss01" horiz-adv-x="690" 
d="M583 88h75v-88h-583v700h93v-612h322v612h93v-612z" />
    <glyph glyph-name="uni0429.ss01" horiz-adv-x="980" 
d="M873 88h75v-88h-873v700h93v-612h260v612h92v-612h260v612h93v-612z" />
    <glyph glyph-name="uni0414.loclBGR.ss01" horiz-adv-x="710" 
d="M618 88h70v-88h-665v88h69l211 612h105zM189 88h332l-166 502z" />
    <glyph glyph-name="uni0432.loclBGR" horiz-adv-x="569" 
d="M406 403q59 -21 92 -72t33 -126q0 -103 -61.5 -160.5t-170.5 -57.5t-171 65t-62 178v236q0 113 59.5 180t161.5 67q85 0 136 -47t51 -123q0 -77 -68 -140zM287 630q-62 0 -98 -44.5t-36 -119.5v-73l85 17q43 8 76 8q74 56 74 120q0 40 -27 66t-74 26zM299 72
q68 0 106.5 35t38.5 98q0 76 -56.5 109.5t-149.5 13.5l-85 -17v-81q0 -74 39 -116t107 -42z" />
    <glyph glyph-name="uni0433.loclBGR" horiz-adv-x="458" 
d="M353 151l75 -44q-23 -53 -75 -86.5t-124 -33.5q-82 0 -135 41t-53 109q0 51 28.5 83.5t69 46t81 24t69 28t28.5 46.5q0 32 -26 49.5t-60 17.5q-81 0 -110 -68l-73 42q25 49 73 78t110 29q74 0 124 -42t50 -107q0 -50 -28.5 -82t-69 -45.5t-81 -24t-69 -28t-28.5 -46.5
q0 -35 28 -52t72 -17q45 0 78 22.5t46 59.5z" />
    <glyph glyph-name="uni0434.loclBGR" 
d="M481 500h86v-479q0 -111 -75 -172.5t-180 -61.5q-84 0 -145 31.5t-92 90.5l76 43q41 -84 163 -84q78 0 122.5 41t44.5 112v71q-66 -100 -188 -100q-107 0 -181 76t-74 185t74 184.5t181 75.5q123 0 188 -99v86zM303 75q76 0 127 51t51 127q0 75 -51 126t-127 51t-127 -51
t-51 -126q0 -76 51 -127t127 -51z" />
    <glyph glyph-name="uni0436.loclBGR" horiz-adv-x="698" 
d="M681 0h-102l-187 235v-235h-86v235l-187 -235h-101l209 258l-199 242h101l177 -220v420h86v-420l177 220h102l-200 -242z" />
    <glyph glyph-name="uni0438.loclBGR" horiz-adv-x="564" 
d="M411 500h87v-500h-87v72q-53 -85 -162 -85q-88 0 -141 55.5t-53 150.5v307h87v-302q0 -61 33 -94.5t91 -33.5q65 0 105 40.5t40 124.5v265z" />
    <glyph glyph-name="uni0439.loclBGR" horiz-adv-x="564" 
d="M410 651v-76h-270v76h270zM411 500h87v-500h-87v72q-53 -85 -162 -85q-88 0 -141 55.5t-53 150.5v307h87v-302q0 -61 33 -94.5t91 -33.5q65 0 105 40.5t40 124.5v265z" />
    <glyph glyph-name="uni043A.loclBGR" horiz-adv-x="504" 
d="M489 0h-108l-228 237v-237h-87v700h87v-421l216 221h112l-239 -242z" />
    <glyph glyph-name="uni043B.loclBGR" horiz-adv-x="518" 
d="M510 0h-94l-157 407l-157 -407h-94l200 500h102z" />
    <glyph glyph-name="uni043F.loclBGR" horiz-adv-x="564" 
d="M315 513q88 0 141 -55.5t53 -150.5v-307h-87v302q0 61 -33 94.5t-91 33.5q-65 0 -105 -40.5t-40 -124.5v-265h-87v500h87v-72q53 85 162 85z" />
    <glyph glyph-name="uni0442.loclBGR" horiz-adv-x="849" 
d="M606 513q84 0 136 -54.5t52 -147.5v-311h-87v308q0 58 -30 90t-80 32q-56 0 -89.5 -37.5t-33.5 -114.5v-278h-87v308q0 58 -28.5 90t-77.5 32q-55 0 -91.5 -38t-36.5 -114v-278h-87v500h87v-67q51 80 149 80q101 0 147 -85q52 85 157 85z" />
    <glyph glyph-name="uni0446.loclBGR" horiz-adv-x="601" 
d="M533 83h41v-217h-86v138q-56 14 -72 70q-55 -87 -167 -87q-88 0 -140.5 55.5t-52.5 150.5v307h87v-301q0 -62 32.5 -95.5t90.5 -33.5q65 0 105 40.5t40 124.5v265h87v-382q0 -16 9.5 -25.5t25.5 -9.5z" />
    <glyph glyph-name="uni0448.loclBGR" horiz-adv-x="849" 
d="M696 500h87v-500h-87v67q-51 -80 -149 -80q-101 0 -147 85q-52 -85 -157 -85q-84 0 -136 54.5t-52 147.5v311h87v-308q0 -58 30 -90t80 -32q56 0 89.5 37.5t33.5 114.5v278h87v-308q0 -58 28.5 -90t77.5 -32q55 0 91.5 38t36.5 114v278z" />
    <glyph glyph-name="uni0449.loclBGR" horiz-adv-x="886" 
d="M818 83h41v-217h-86v138q-53 14 -71 66q-52 -83 -152 -83q-103 0 -149 85q-52 -85 -158 -85q-84 0 -135.5 54.5t-51.5 147.5v311h87v-307q0 -59 29.5 -91t79.5 -32q56 0 90 37.5t34 114.5v278h87v-307q0 -59 28 -91t78 -32q54 0 90.5 38t36.5 114v278h87v-382
q0 -16 9.5 -25.5t25.5 -9.5z" />
    <glyph glyph-name="uni044C.loclBGR" horiz-adv-x="483" 
d="M258 346q94 0 146 -46t52 -128q0 -77 -56 -131t-144 -54q-92 0 -146 52.5t-54 134.5v326h86v-154h116zM256 71q49 0 81.5 31t32.5 70q0 44 -29.5 68.5t-82.5 24.5h-116v-91q0 -43 31 -73t83 -30z" />
    <glyph glyph-name="uni044A.loclBGR" horiz-adv-x="568" 
d="M341 346q94 0 146 -46t52 -128q0 -77 -56 -131t-144 -54q-92 0 -146 52.5t-54 134.5v243h-139v83h225v-154h116zM339 71q49 0 81.5 31t32.5 70q0 44 -29.5 68.5t-82.5 24.5h-116v-91q0 -43 31 -73t83 -30z" />
    <glyph glyph-name="uni044E.loclBGR" horiz-adv-x="804" 
d="M503 513q110 0 186.5 -76t76.5 -187t-76.5 -187t-186.5 -76q-99 0 -171 63t-86 159h-93v-209h-87v700h87v-408h93q14 96 86.5 158.5t170.5 62.5zM503 72q74 0 125 51t51 127t-51 127t-125 51q-75 0 -126 -51t-51 -127t51 -127t126 -51z" />
    <glyph glyph-name="zero.sinf" horiz-adv-x="410" 
d="M205 -173q-82 0 -129.5 58t-47.5 155t47.5 155t129.5 58t129.5 -58t47.5 -155t-47.5 -155t-129.5 -58zM205 -97q47 0 73 35t26 102t-26 102t-73 35t-73 -35t-26 -102t26 -102t73 -35z" />
    <glyph glyph-name="one.sinf" horiz-adv-x="248" 
d="M125 240h67v-400h-77v319l-88 -26l-19 65z" />
    <glyph glyph-name="two.sinf" horiz-adv-x="344" 
d="M29 -160v57l162 153q39 36 39 77q0 24 -16.5 38.5t-44.5 14.5q-55 0 -79 -58l-64 36q40 95 143 95q61 0 100 -35.5t39 -88.5q0 -67 -64 -126l-101 -91h172v-72h-286z" />
    <glyph glyph-name="three.sinf" horiz-adv-x="347" 
d="M214 74q48 -10 75 -40.5t27 -75.5q0 -60 -40.5 -95.5t-108.5 -35.5q-107 0 -147 86l65 37q22 -51 82 -51q35 0 53.5 16t18.5 43t-20 43.5t-53 16.5h-9l-34 50l84 100h-172v72h263v-66z" />
    <glyph glyph-name="four.sinf" horiz-adv-x="355" 
d="M336 -18v-71h-47v-71h-76v71h-199v71l142 258h83l-140 -258h114v88h76v-88h47z" />
    <glyph glyph-name="five.sinf" horiz-adv-x="331" 
d="M169 90q64 0 103 -35.5t39 -97.5q0 -60 -39 -95t-105 -35q-106 0 -146 87l65 36q23 -52 80 -52q34 0 52.5 16t18.5 44t-18.5 45.5t-52.5 17.5h-124l15 219h237v-71h-172l-5 -79h52z" />
    <glyph glyph-name="six.sinf" horiz-adv-x="337" 
d="M168 108q66 0 108 -40t42 -100t-42.5 -100.5t-107.5 -40.5t-107 40.5t-42 100.5q0 47 25 81l121 191h87l-89 -132h5zM168 -103q34 0 55 19.5t21 51.5t-21 51t-55 19t-54.5 -19t-20.5 -51t20.5 -51.5t54.5 -19.5z" />
    <glyph glyph-name="seven.sinf" horiz-adv-x="296" 
d="M8 240h269v-61l-141 -339h-81l138 328h-185v72z" />
    <glyph glyph-name="eight.sinf" horiz-adv-x="340" 
d="M254 51q63 -34 63 -104q0 -55 -40 -87.5t-107 -32.5t-107 32.5t-40 87.5q0 70 63 104q-50 30 -50 86q0 53 38.5 84.5t95.5 31.5t95.5 -31.5t38.5 -84.5q0 -56 -50 -86zM170 184q-30 0 -46 -13.5t-16 -36.5q0 -24 16 -38.5t46 -14.5q29 0 45.5 14.5t16.5 38.5
q0 23 -16.5 36.5t-45.5 13.5zM170 -102q34 0 53 16t19 43t-19.5 43t-52.5 16q-34 0 -53 -15.5t-19 -43.5q0 -27 19 -43t53 -16z" />
    <glyph glyph-name="nine.sinf" horiz-adv-x="337" 
d="M318 112q0 -47 -25 -81l-121 -191h-87l89 132h-5q-66 0 -108 40t-42 100t42.5 100.5t107.5 40.5t107 -40.5t42 -100.5zM93 112q0 -32 21 -51t55 -19t54.5 19t20.5 51t-20.5 51.5t-54.5 19.5t-55 -19.5t-21 -51.5z" />
    <glyph glyph-name="zero.tf" horiz-adv-x="573" 
d="M286 -13q-128 0 -199 99t-71 264t71 264t199 99t199 -99t71 -264t-71 -264t-199 -99zM286 78q85 0 131.5 70.5t46.5 201.5t-46.5 202t-131.5 71t-131 -71t-46 -202q0 -130 46 -201t131 -71z" />
    <glyph glyph-name="one.tf" horiz-adv-x="573" 
d="M346 88h200v-88h-510v88h218v512l-149 -44l-23 80l184 64h80v-612z" />
    <glyph glyph-name="two.tf" horiz-adv-x="573" 
d="M41 0v76l254 223q65 56 98 99.5t33 90.5q0 61 -38 97.5t-105 36.5q-109 0 -158 -109l-78 45q34 74 97 114t140 40q102 0 168.5 -61t66.5 -161q0 -68 -41.5 -128t-119.5 -125l-178 -148h353v-90h-492z" />
    <glyph glyph-name="three.tf" horiz-adv-x="573" 
d="M341 415q88 -14 141.5 -67t53.5 -139q0 -104 -72 -163t-184 -59q-91 0 -159.5 42.5t-95.5 117.5l78 46q16 -54 62.5 -84.5t112.5 -30.5q78 0 122 34t44 97q0 62 -44.5 96.5t-121.5 34.5h-22l-39 57l175 216h-344v87h458v-82z" />
    <glyph glyph-name="four.tf" horiz-adv-x="573" 
d="M554 220v-87h-85v-133h-93v133h-360v87l251 480h100l-251 -480h260v183h93v-183h85z" />
    <glyph glyph-name="five.tf" horiz-adv-x="573" 
d="M289 427q107 0 177 -58.5t70 -161.5t-71.5 -161.5t-176.5 -58.5q-91 0 -160 42.5t-96 117.5l79 46q15 -53 61.5 -84t113.5 -31q72 0 115 34t43 95q0 62 -42.5 96t-115.5 34h-215l26 363h412v-87h-327l-13 -186h120z" />
    <glyph glyph-name="six.tf" horiz-adv-x="573" 
d="M279 460q118 0 189 -65t71 -171t-71 -171.5t-189 -65.5q-119 0 -189.5 65.5t-70.5 171.5q0 88 49 149l234 327h109l-174 -242q28 2 42 2zM279 76q79 0 123 40t44 108t-44 108t-123 40t-123.5 -40t-44.5 -108t44.5 -108t123.5 -40z" />
    <glyph glyph-name="seven.tf" horiz-adv-x="573" 
d="M35 700h500v-83l-278 -617h-97l275 612h-400v88z" />
    <glyph glyph-name="eight.tf" horiz-adv-x="573" 
d="M431 362q53 -26 82.5 -70.5t29.5 -99.5q0 -96 -69.5 -150.5t-187.5 -54.5q-117 0 -186.5 54.5t-69.5 150.5q0 55 29.5 99.5t82.5 70.5q-88 55 -88 153q0 94 65.5 146t166.5 52t167 -51.5t66 -146.5q0 -98 -88 -153zM286 624q-65 0 -102.5 -28t-37.5 -83q0 -53 38 -82.5
t102 -29.5q65 0 103 29.5t38 82.5q0 55 -37.5 83t-103.5 28zM286 76q79 0 122 32t43 90t-43 89.5t-122 31.5t-121.5 -31.5t-42.5 -89.5t42.5 -90t121.5 -32z" />
    <glyph glyph-name="nine.tf" horiz-adv-x="573" 
d="M554 476q0 -84 -47 -145l-237 -331h-108l173 242q-26 -2 -41 -2q-118 0 -189 65t-71 171t71 171.5t189 65.5t189 -65.5t71 -171.5zM126 476q0 -68 44.5 -107.5t123.5 -39.5t123 39.5t44 107.5q0 69 -44 108.5t-123 39.5t-123.5 -40t-44.5 -108z" />
    <glyph glyph-name="zero.dnom" horiz-adv-x="410" 
d="M205 -13q-82 0 -129.5 58t-47.5 155t47.5 155t129.5 58t129.5 -58t47.5 -155t-47.5 -155t-129.5 -58zM205 63q47 0 73 35t26 102t-26 102t-73 35t-73 -35t-26 -102t26 -102t73 -35z" />
    <glyph glyph-name="one.dnom" horiz-adv-x="254" 
d="M125 400h67v-400h-77v319l-88 -26l-19 65z" />
    <glyph glyph-name="two.dnom" horiz-adv-x="345" 
d="M29 0v57l162 153q39 36 39 77q0 24 -16.5 38.5t-44.5 14.5q-55 0 -79 -58l-64 36q40 95 143 95q61 0 100 -35.5t39 -88.5q0 -67 -64 -126l-101 -91h172v-72h-286z" />
    <glyph glyph-name="three.dnom" horiz-adv-x="351" 
d="M214 234q48 -10 75 -40.5t27 -75.5q0 -60 -40.5 -95.5t-108.5 -35.5q-107 0 -147 86l65 37q22 -51 82 -51q35 0 53.5 16t18.5 43t-20 43.5t-53 16.5h-9l-34 50l84 100h-172v72h263v-66z" />
    <glyph glyph-name="four.dnom" horiz-adv-x="355" 
d="M336 142v-71h-47v-71h-76v71h-199v71l142 258h83l-140 -258h114v88h76v-88h47z" />
    <glyph glyph-name="five.dnom" horiz-adv-x="339" 
d="M165 250q64 0 103 -35.5t39 -97.5q0 -60 -39 -95t-105 -35q-106 0 -146 87l65 36q23 -52 80 -52q34 0 52.5 16t18.5 44t-18.5 45.5t-52.5 17.5h-124l15 219h237v-71h-172l-5 -79h52z" />
    <glyph glyph-name="six.dnom" horiz-adv-x="337" 
d="M168 268q66 0 108 -40t42 -100t-42.5 -100.5t-107.5 -40.5t-107 40.5t-42 100.5q0 47 25 81l121 191h87l-89 -132h5zM168 57q34 0 55 19.5t21 51.5t-21 51t-55 19t-54.5 -19t-20.5 -51t20.5 -51.5t54.5 -19.5z" />
    <glyph glyph-name="seven.dnom" horiz-adv-x="296" 
d="M8 400h269v-61l-141 -339h-81l138 328h-185v72z" />
    <glyph glyph-name="eight.dnom" horiz-adv-x="340" 
d="M254 211q63 -34 63 -104q0 -55 -40 -87.5t-107 -32.5t-107 32.5t-40 87.5q0 70 63 104q-50 30 -50 86q0 53 38.5 84.5t95.5 31.5t95.5 -31.5t38.5 -84.5q0 -56 -50 -86zM170 344q-30 0 -46 -13.5t-16 -36.5q0 -24 16 -38.5t46 -14.5q29 0 45.5 14.5t16.5 38.5
q0 23 -16.5 36.5t-45.5 13.5zM170 58q34 0 53 16t19 43t-19.5 43t-52.5 16q-34 0 -53 -15.5t-19 -43.5q0 -27 19 -43t53 -16z" />
    <glyph glyph-name="nine.dnom" horiz-adv-x="337" 
d="M318 272q0 -47 -25 -81l-121 -191h-87l89 132h-5q-66 0 -108 40t-42 100t42.5 100.5t107.5 40.5t107 -40.5t42 -100.5zM93 272q0 -32 21 -51t55 -19t54.5 19.5t20.5 50.5q0 32 -20.5 51.5t-54.5 19.5t-55 -19.5t-21 -51.5z" />
    <glyph glyph-name="zero.numr" horiz-adv-x="410" 
d="M205 287q-82 0 -129.5 58t-47.5 155t47.5 155t129.5 58t129.5 -58t47.5 -155t-47.5 -155t-129.5 -58zM205 363q47 0 73 35t26 102t-26 102t-73 35t-73 -35t-26 -102t26 -102t73 -35z" />
    <glyph glyph-name="one.numr" horiz-adv-x="254" 
d="M125 700h67v-400h-77v319l-88 -26l-19 65z" />
    <glyph glyph-name="two.numr" horiz-adv-x="345" 
d="M29 300v57l162 153q39 36 39 77q0 24 -16.5 38.5t-44.5 14.5q-55 0 -79 -58l-64 36q40 95 143 95q61 0 100 -35.5t39 -88.5q0 -67 -64 -126l-101 -91h172v-72h-286z" />
    <glyph glyph-name="three.numr" horiz-adv-x="351" 
d="M214 534q48 -10 75 -40.5t27 -75.5q0 -60 -40.5 -95.5t-108.5 -35.5q-107 0 -147 86l65 37q22 -51 82 -51q35 0 53.5 16t18.5 43t-20 43.5t-53 16.5h-9l-34 50l84 100h-172v72h263v-66z" />
    <glyph glyph-name="four.numr" horiz-adv-x="355" 
d="M336 442v-71h-47v-71h-76v71h-199v71l142 258h83l-140 -258h114v88h76v-88h47z" />
    <glyph glyph-name="five.numr" horiz-adv-x="339" 
d="M165 550q64 0 103 -35.5t39 -97.5q0 -60 -39 -95t-105 -35q-106 0 -146 87l65 36q23 -52 80 -52q34 0 52.5 16t18.5 44t-18.5 45.5t-52.5 17.5h-124l15 219h237v-71h-172l-5 -79h52z" />
    <glyph glyph-name="six.numr" horiz-adv-x="337" 
d="M168 568q66 0 108 -40t42 -100t-42.5 -100.5t-107.5 -40.5t-107 40.5t-42 100.5q0 47 25 81l121 191h87l-89 -132h5zM168 357q34 0 55 19.5t21 51.5t-21 51t-55 19t-54.5 -19t-20.5 -51t20.5 -51.5t54.5 -19.5z" />
    <glyph glyph-name="seven.numr" horiz-adv-x="296" 
d="M8 700h269v-61l-141 -339h-81l138 328h-185v72z" />
    <glyph glyph-name="eight.numr" horiz-adv-x="340" 
d="M254 511q63 -34 63 -104q0 -55 -40 -87.5t-107 -32.5t-107 32.5t-40 87.5q0 70 63 104q-50 30 -50 86q0 53 38.5 84.5t95.5 31.5t95.5 -31.5t38.5 -84.5q0 -56 -50 -86zM170 644q-30 0 -46 -13.5t-16 -36.5q0 -24 16 -38.5t46 -14.5q29 0 45.5 14.5t16.5 38.5
q0 23 -16.5 36.5t-45.5 13.5zM170 358q34 0 53 16t19 43t-19.5 43t-52.5 16q-34 0 -53 -15.5t-19 -43.5q0 -27 19 -43t53 -16z" />
    <glyph glyph-name="nine.numr" horiz-adv-x="337" 
d="M318 572q0 -47 -25 -81l-121 -191h-87l89 132h-5q-66 0 -108 40t-42 100t42.5 100.5t107.5 40.5t107 -40.5t42 -100.5zM93 572q0 -32 21 -51t55 -19t54.5 19t20.5 51t-20.5 51.5t-54.5 19.5t-55 -19.5t-21 -51.5z" />
    <glyph glyph-name="zero.sups" horiz-adv-x="410" 
d="M205 447q-82 0 -129.5 58t-47.5 155t47.5 155t129.5 58t129.5 -58t47.5 -155t-47.5 -155t-129.5 -58zM205 523q47 0 73 35t26 102t-26 102t-73 35t-73 -35t-26 -102t26 -102t73 -35z" />
    <glyph glyph-name="one.sups" horiz-adv-x="254" 
d="M125 860h67v-400h-77v319l-88 -26l-19 65z" />
    <glyph glyph-name="two.sups" horiz-adv-x="345" 
d="M29 460v57l162 153q39 36 39 77q0 24 -16.5 38.5t-44.5 14.5q-55 0 -79 -58l-64 36q40 95 143 95q61 0 100 -35.5t39 -88.5q0 -67 -64 -126l-101 -91h172v-72h-286z" />
    <glyph glyph-name="three.sups" horiz-adv-x="351" 
d="M214 694q48 -10 75 -40.5t27 -75.5q0 -60 -40.5 -95.5t-108.5 -35.5q-107 0 -147 86l65 37q22 -51 82 -51q35 0 53.5 16t18.5 43t-20 43.5t-53 16.5h-9l-34 50l84 100h-172v72h263v-66z" />
    <glyph glyph-name="four.sups" horiz-adv-x="355" 
d="M336 602v-71h-47v-71h-76v71h-199v71l142 258h83l-140 -258h114v88h76v-88h47z" />
    <glyph glyph-name="five.sups" horiz-adv-x="339" 
d="M165 710q64 0 103 -35.5t39 -97.5q0 -60 -39 -95t-105 -35q-106 0 -146 87l65 36q23 -52 80 -52q34 0 52.5 16t18.5 44t-18.5 45.5t-52.5 17.5h-124l15 219h237v-71h-172l-5 -79h52z" />
    <glyph glyph-name="six.sups" horiz-adv-x="337" 
d="M168 728q66 0 108 -40t42 -100t-42.5 -100.5t-107.5 -40.5t-107 40.5t-42 100.5q0 47 25 81l121 191h87l-89 -132h5zM168 517q34 0 55 19.5t21 51.5t-21 51t-55 19t-54.5 -19t-20.5 -51t20.5 -51.5t54.5 -19.5z" />
    <glyph glyph-name="seven.sups" horiz-adv-x="296" 
d="M8 860h269v-61l-141 -339h-81l138 328h-185v72z" />
    <glyph glyph-name="eight.sups" horiz-adv-x="340" 
d="M254 671q63 -34 63 -104q0 -55 -40 -87.5t-107 -32.5t-107 32.5t-40 87.5q0 70 63 104q-50 30 -50 86q0 53 38.5 84.5t95.5 31.5t95.5 -31.5t38.5 -84.5q0 -56 -50 -86zM170 804q-30 0 -46 -13.5t-16 -36.5q0 -24 16 -38.5t46 -14.5q29 0 45.5 14.5t16.5 38.5
q0 23 -16.5 36.5t-45.5 13.5zM170 518q34 0 53 16t19 43t-19.5 43t-52.5 16q-34 0 -53 -15.5t-19 -43.5q0 -27 19 -43t53 -16z" />
    <glyph glyph-name="nine.sups" horiz-adv-x="337" 
d="M318 732q0 -47 -25 -81l-121 -191h-87l89 132h-5q-66 0 -108 40t-42 100t42.5 100.5t107.5 40.5t107 -40.5t42 -100.5zM93 732q0 -32 21 -51t55 -19t54.5 19t20.5 51t-20.5 51.5t-54.5 19.5t-55 -19.5t-21 -51.5z" />
    <glyph glyph-name="cent.tf" horiz-adv-x="573" 
d="M464 260l74 -43q-32 -59 -92 -94.5t-133 -35.5q-33 0 -65 8l-31 -95h-53l36 111q-69 31 -109.5 95t-40.5 144q0 112 75 187.5t188 75.5q27 0 48 -4l29 91h53l-34 -105q86 -32 125 -113l-73 -42q-25 51 -78 74l-109 -337q17 -4 39 -4q50 0 90 23.5t61 63.5zM137 350
q0 -51 24 -92t66 -64l107 333q-7 1 -21 1q-75 0 -125.5 -51t-50.5 -127z" />
    <glyph glyph-name="dollar.tf" horiz-adv-x="573" 
d="M538 186q0 -82 -56 -135t-149 -62v-89h-62v88q-176 11 -236 160l80 46q36 -107 156 -117v242q-48 15 -79 29.5t-62 37.5t-46 57t-15 79q0 82 57 132.5t145 57.5v88h62v-89q139 -16 190 -142l-78 -45q-31 84 -112 97v-230q48 -15 79 -29.5t63 -37.5t47.5 -57.5t15.5 -80.5
zM161 522q0 -40 26 -64.5t84 -45.5v211q-52 -5 -81 -32t-29 -69zM333 78q54 7 83 35.5t29 70.5q0 43 -26.5 68t-85.5 47v-221z" />
    <glyph glyph-name="Euro.tf" horiz-adv-x="573" 
d="M472 184l76 -43q-25 -73 -79.5 -113.5t-127.5 -40.5q-103 0 -168.5 74t-82.5 202h-66v65h60v22q0 21 1 31h-61v64h67q18 125 83 196.5t167 71.5q71 0 124.5 -37.5t78.5 -107.5l-77 -44q-15 48 -48.5 73.5t-77.5 25.5q-62 0 -103 -46t-55 -132h221v-64h-227q-1 -10 -1 -31
v-22h228v-65h-222q13 -89 54.5 -137t104.5 -48q45 0 80 27.5t51 78.5z" />
    <glyph glyph-name="florin.tf" horiz-adv-x="573" 
d="M545 618q-111 39 -137 -64l-41 -161h141v-84h-163l-94 -369q-49 -188 -223 -141v85q111 -37 136 64l92 361h-139v84h161l43 169q48 189 224 142v-86z" />
    <glyph glyph-name="uni20BD.tf" horiz-adv-x="573" 
d="M326 268h-138v-81h225v-68h-225v-119h-93v119h-85v68h85v81h-85v84h85v348h231q91 0 155 -63.5t64 -153.5t-63.5 -152.5t-155.5 -62.5zM188 613v-261h138q52 0 89.5 38.5t37.5 92.5t-37 92t-90 38h-138z" />
    <glyph glyph-name="sterling.tf" horiz-adv-x="573" 
d="M210 90h353v-90h-533v90h87v194h-69v82h69v134q0 103 62.5 158t147.5 55q71 0 122.5 -36.5t77.5 -101.5l-78 -44q-33 92 -121 92q-50 0 -84 -31.5t-34 -93.5v-132h224v-82h-224v-194z" />
    <glyph glyph-name="yen.tf" horiz-adv-x="573" 
d="M567 700l-215 -348h155v-65h-174v-55h174v-66h-174v-166h-93v166h-173v66h173v55h-173v65h155l-216 348h103l178 -292l177 292h103z" />
    <glyph glyph-name="brevecy" horiz-adv-x="320" 
d="M25 575v76h270v-76h-270z" />
    </font>
</defs>
</svg>
