<?xml version="1.0" standalone="no"?>
<!DOCTYPE svg PUBLIC "-//W3C//DTD SVG 1.1//EN" "http://www.w3.org/Graphics/SVG/1.1/DTD/svg11.dtd" >
<svg xmlns="http://www.w3.org/2000/svg" xmlns:xlink="http://www.w3.org/1999/xlink" version="1.1">
<metadata>
Created by FontForge 20170731 at Fri Jul  8 21:54:05 2016
 By Aleksey,,,
Copyright (c) 2016 by Radomir Tinkov. All rights reserved.
</metadata>
<defs>
<font id="Gilroy-UltraLight" horiz-adv-x="570" >
  <font-face 
    font-family="Gilroy-UltraLight"
    font-weight="400"
    font-stretch="normal"
    units-per-em="1000"
    panose-1="0 0 3 0 0 0 0 0 0 0"
    ascent="776"
    descent="-224"
    x-height="500"
    cap-height="700"
    bbox="-287 -240 1035 960"
    underline-thickness="50"
    underline-position="-150"
    unicode-range="U+0020-FB02"
  />
<missing-glyph horiz-adv-x="500" 
d="M410 800v-1000h-317v1000h317zM333 733h-165v-33h65v-37h-66v-33h166v33h-66v37h66v33zM267 604h-100v-104h166v34h-66v70zM233 570v-36h-33v36h33zM333 473h-166v-33h66v-37h-66v-33h100v70h66v33zM333 413h-33v-66h-133v-34h166v100zM333 291h-100v-56h34v23h33v-47
h-100v80h-33v-113h166v113zM333 118h-166v-113h166v113zM300 85v-47h-100v47h100zM333 -18h-166v-33h70l-70 -47v-33h166v33h-102l70 47h32v33z" />
    <glyph glyph-name="fi" unicode="fi" horiz-adv-x="505" 
d="M421 500v-500h-35v467h-234v-467h-35v467h-89v33h89v33q0 178 189 178q49 0 99 -11v-32q-47 9 -99 9q-81 0 -117.5 -34.5t-36.5 -109.5v-33h269z" />
    <glyph glyph-name="fl" unicode="fl" horiz-adv-x="505" 
d="M306 711q55 0 115 -11v-700h-35v673q-38 6 -80 6q-80 0 -117 -35.5t-37 -110.5v-33h124v-33h-124v-467h-35v467h-89v33h89v33q0 178 189 178z" />
    <glyph glyph-name="f_f" unicode="ff" horiz-adv-x="575" 
d="M575 687q-154 13 -154 -144v-43h154v-33h-154v-467h-35v467h-234v-467h-35v467h-89v33h89v33q0 90 47.5 137.5t141.5 40.5v-34q-154 13 -154 -144v-33h234v43q0 90 48 137.5t141 40.5v-34z" />
    <glyph glyph-name="f_f_i" unicode="ffi" horiz-adv-x="774" 
d="M691 500v-500h-36v467h-234v-467h-35v467h-234v-467h-35v467h-89v33h89v33q0 90 47.5 137.5t141.5 40.5v-34q-154 13 -154 -144v-33h234v43q0 178 189 178q50 0 99 -11v-32q-46 9 -99 9q-80 0 -117 -35t-37 -109v-43h270z" />
    <glyph glyph-name="f_f_l" unicode="ffl" horiz-adv-x="774" 
d="M575 721q55 0 116 -11v-710h-36v683q-38 6 -80 6q-80 0 -117 -35.5t-37 -110.5v-43h124v-33h-124v-467h-35v467h-234v-467h-35v467h-89v33h89v33q0 90 47.5 137.5t141.5 40.5v-34q-154 13 -154 -144v-33h234v43q0 178 189 178z" />
    <glyph glyph-name=".notdef" horiz-adv-x="500" 
d="M410 800v-1000h-317v1000h317zM333 733h-165v-33h65v-37h-66v-33h166v33h-66v37h66v33zM267 604h-100v-104h166v34h-66v70zM233 570v-36h-33v36h33zM333 473h-166v-33h66v-37h-66v-33h100v70h66v33zM333 413h-33v-66h-133v-34h166v100zM333 291h-100v-56h34v23h33v-47
h-100v80h-33v-113h166v113zM333 118h-166v-113h166v113zM300 85v-47h-100v47h100zM333 -18h-166v-33h70l-70 -47v-33h166v33h-102l70 47h32v33z" />
    <glyph glyph-name=".null" horiz-adv-x="0" 
 />
    <glyph glyph-name="nonmarkingreturn" horiz-adv-x="333" 
 />
    <glyph glyph-name="space" unicode=" " horiz-adv-x="283" 
 />
    <glyph glyph-name="exclam" unicode="!" horiz-adv-x="210" 
d="M90 170l-5 330v200h40v-200l-5 -330h-30zM105 -10q-15 0 -25 10t-10 25t10 25t25 10t25 -10t10 -25t-10 -25t-25 -10z" />
    <glyph glyph-name="quotedbl" unicode="&#x22;" horiz-adv-x="277" 
d="M60 527l-3 173h36l-3 -173h-30zM187 527l-4 173h37l-3 -173h-30z" />
    <glyph glyph-name="numbersign" unicode="#" horiz-adv-x="608" 
d="M559 423h-120l-24 -146h120l-6 -34h-120l-32 -193h-34l32 193h-178l-32 -193h-34l32 193h-120l6 34h120l24 146h-121l6 34h121l32 193h34l-32 -193h178l32 193h34l-32 -193h119zM381 277l24 146h-178l-24 -146h178z" />
    <glyph glyph-name="dollar" unicode="$" horiz-adv-x="550" 
d="M503 175q0 -77 -53.5 -127.5t-143.5 -57.5v-90h-33v89q-85 2 -145 38t-81 100l31 19q18 -58 69 -89t126 -33v318q-38 13 -61 22t-52 25.5t-44.5 34.5t-27 45.5t-11.5 61.5q0 75 56 126t140 54v89h33v-90q133 -11 179 -124l-30 -17q-38 96 -149 106v-308q48 -17 77 -30
t60 -35.5t45.5 -53.5t14.5 -73zM114 531q0 -62 40 -93.5t119 -59.5v298q-72 -3 -115.5 -44.5t-43.5 -100.5zM306 25q77 7 119 48t42 102t-40 94t-121 62v-306z" />
    <glyph glyph-name="percent" unicode="%" horiz-adv-x="722" 
d="M220 413q-66 0 -109.5 43t-43.5 106t43.5 106t109.5 43t109.5 -43t43.5 -106t-43 -106t-110 -43zM220 445q52 0 85 33.5t33 83.5t-33.5 83.5t-84.5 33.5t-85 -33.5t-34 -83.5t34 -83.5t85 -33.5zM108 85l479 542l25 -14l-480 -542zM503 -11q-66 0 -109.5 43t-43.5 106
t43.5 106t109.5 43t109.5 -43t43.5 -106t-43.5 -106t-109.5 -43zM503 21q51 0 84.5 33.5t33.5 83.5t-33.5 83.5t-84.5 33.5t-85 -33.5t-34 -83.5t34 -83.5t85 -33.5z" />
    <glyph glyph-name="ampersand" unicode="&#x26;" horiz-adv-x="653" 
d="M625 14l-32 -18l-88 91q-78 -98 -214 -98q-104 0 -164 53.5t-60 143.5q0 67 37.5 121.5t105.5 84.5q-60 69 -60 140q0 80 57 129.5t139 49.5q65 0 115.5 -34t72.5 -93l-31 -17q-17 51 -58 80t-99 29q-71 0 -115.5 -40.5t-44.5 -103.5q0 -43 21 -76t68 -81l224 -232
q35 59 47 146l32 -19q-12 -85 -52 -153zM290 24q119 0 189 89l-230 238l-14 14q-65 -25 -98.5 -73.5t-33.5 -105.5q0 -75 51 -118.5t136 -43.5z" />
    <glyph glyph-name="quotesingle" unicode="'" horiz-adv-x="143" 
d="M60 527l-3 173h36l-3 -173h-30z" />
    <glyph glyph-name="parenleft" unicode="(" horiz-adv-x="255" 
d="M170 -100q-110 220 -110 450t110 450h35q-110 -220 -110 -450t110 -450h-35z" />
    <glyph glyph-name="parenright" unicode=")" horiz-adv-x="255" 
d="M85 -100h-35q110 220 110 450t-110 450h35q110 -220 110 -450t-110 -450z" />
    <glyph glyph-name="asterisk" unicode="*" horiz-adv-x="381" 
d="M315 613v-31l-99 2l54 -83l-28 -17l-51 86l-52 -86l-27 17l54 83l-99 -2v31l99 -2l-54 83l27 17l52 -87l51 87l28 -17l-54 -83z" />
    <glyph glyph-name="plus" unicode="+" horiz-adv-x="527" 
d="M460 367v-34h-179v-180h-35v180h-179v34h179v180h35v-180h179z" />
    <glyph glyph-name="comma" unicode="," horiz-adv-x="207" 
d="M143 52l-48 -192h-32l36 192h44z" />
    <glyph glyph-name="hyphen" unicode="-" horiz-adv-x="547" 
d="M93 292v34h360v-34h-360z" />
    <glyph glyph-name="period" unicode="." horiz-adv-x="197" 
d="M98 -10q-14 0 -24.5 10t-10.5 25t10.5 25t24.5 10q15 0 25 -10t10 -25t-10 -25t-25 -10z" />
    <glyph glyph-name="slash" unicode="/" horiz-adv-x="523" 
d="M77 -100h-30l400 900h30z" />
    <glyph glyph-name="zero" unicode="0" horiz-adv-x="630" 
d="M315 -11q-121 0 -189.5 98.5t-68.5 262.5t68.5 262.5t189.5 98.5t189.5 -98.5t68.5 -262.5t-68.5 -262.5t-189.5 -98.5zM315 24q103 0 162.5 87t59.5 239t-59.5 239t-162.5 87t-162.5 -87t-59.5 -239t59.5 -239t162.5 -87z" />
    <glyph glyph-name="one" unicode="1" horiz-adv-x="324" 
d="M201 700h30v-700h-37v660l-166 -54l-10 31z" />
    <glyph glyph-name="two" unicode="2" horiz-adv-x="528" 
d="M47 0v33l261 274q119 125 119 210q0 72 -46.5 115.5t-120.5 43.5q-128 0 -179 -113l-30 18q28 62 83.5 96t125.5 34q85 0 144 -52.5t59 -141.5q0 -97 -130 -235l-236 -247h385v-35h-435z" />
    <glyph glyph-name="three" unicode="3" horiz-adv-x="548" 
d="M285 410q91 -6 150.5 -62.5t59.5 -146.5q0 -95 -66 -153.5t-163 -58.5q-77 0 -135.5 34t-83.5 95l30 18q20 -53 69.5 -82.5t119.5 -29.5q85 0 138.5 49.5t53.5 127.5t-54 127.5t-141 49.5h-11l-15 23l180 265h-356v34h397v-34z" />
    <glyph glyph-name="four" unicode="4" horiz-adv-x="567" 
d="M542 187v-34h-90v-153h-37v153h-383v34l270 513h41l-271 -513h343v226h37v-226h90z" />
    <glyph glyph-name="five" unicode="5" horiz-adv-x="542" 
d="M267 413q99 0 165.5 -58.5t66.5 -153.5t-66.5 -153.5t-165.5 -58.5q-76 0 -134 35.5t-83 97.5l30 18q20 -54 69.5 -85t117.5 -31q87 0 141 49.5t54 127.5t-54 127.5t-141 49.5h-184l22 322h365v-34h-333l-17 -253h147z" />
    <glyph glyph-name="six" unicode="6" horiz-adv-x="543" 
d="M272 450q103 0 169 -64.5t66 -165.5q0 -102 -66 -166.5t-169 -64.5t-169 64.5t-66 166.5q0 78 43 139l239 341h41l-189 -270q46 20 101 20zM272 24q91 0 144.5 55t53.5 141q0 85 -54 140t-144 55q-91 0 -145 -55t-54 -140q0 -86 54 -141t145 -55z" />
    <glyph glyph-name="seven" unicode="7" horiz-adv-x="490" 
d="M27 700h416v-34l-279 -666h-38l280 666h-379v34z" />
    <glyph glyph-name="eight" unicode="8" horiz-adv-x="552" 
d="M367 362q64 -21 101 -67.5t37 -111.5q0 -89 -63.5 -141.5t-165.5 -52.5t-165.5 52.5t-63.5 141.5q0 65 37 111.5t101 67.5q-53 21 -84.5 64t-31.5 101q0 84 59 134t148 50t148 -50t59 -134q0 -58 -31.5 -101t-84.5 -64zM106 527q0 -66 46.5 -108t123.5 -42t123.5 42
t46.5 108q0 67 -46 108t-124 41t-124 -41t-46 -108zM276 24q91 0 142 43.5t51 115.5q0 73 -51 116.5t-142 43.5t-142 -43.5t-51 -116.5q0 -72 51 -115.5t142 -43.5z" />
    <glyph glyph-name="nine" unicode="9" horiz-adv-x="543" 
d="M507 480q0 -78 -43 -139l-240 -341h-41l189 269q-48 -19 -100 -19q-103 0 -169 64.5t-66 165.5q0 102 66 166.5t169 64.5t169 -64.5t66 -166.5zM73 480q0 -85 54 -140t145 -55q90 0 144 55t54 140q0 86 -53.5 141t-144.5 55t-145 -55t-54 -141z" />
    <glyph glyph-name="colon" unicode=":" horiz-adv-x="197" 
d="M98 420q-14 0 -24.5 10t-10.5 25t10.5 25t24.5 10q15 0 25 -10t10 -25t-10 -25t-25 -10zM98 -10q-14 0 -24.5 10t-10.5 25t10.5 25t24.5 10q15 0 25 -10t10 -25t-10 -25t-25 -10z" />
    <glyph glyph-name="semicolon" unicode=";" horiz-adv-x="215" 
d="M116 420q-14 0 -24.5 10t-10.5 25t10.5 25t24.5 10q15 0 25 -10t10 -25t-10 -25t-25 -10zM143 52l-48 -192h-32l36 192h44z" />
    <glyph glyph-name="less" unicode="&#x3c;" horiz-adv-x="533" 
d="M466 548v-38l-360 -160l360 -160v-38l-400 180v36z" />
    <glyph glyph-name="equal" unicode="=" horiz-adv-x="533" 
d="M67 433v34h400v-34h-400zM67 233v34h400v-34h-400z" />
    <glyph glyph-name="greater" unicode="&#x3e;" horiz-adv-x="533" 
d="M67 548l400 -180v-36l-400 -180v38l360 160l-360 160v38z" />
    <glyph glyph-name="question" unicode="?" horiz-adv-x="528" 
d="M230 170q0 48 20 91t49 75t57.5 62t48.5 65.5t20 72.5q0 64 -43.5 102t-120.5 38q-63 0 -110 -30t-63 -80l-31 17q21 59 77.5 93.5t126.5 34.5q89 0 144.5 -46.5t55.5 -128.5q0 -41 -20 -79t-48.5 -68.5t-57 -62t-48.5 -72t-20 -84.5h-37zM248 -10q-14 0 -24.5 10
t-10.5 25t10.5 25t24.5 10q15 0 25 -10t10 -25t-10 -25t-25 -10z" />
    <glyph glyph-name="at" unicode="@" horiz-adv-x="821" 
d="M417 612q106 0 188 -51.5t122 -128.5t40 -162q0 -106 -39 -155.5t-95 -49.5q-45 0 -70.5 27t-28.5 71q-19 -34 -53 -53.5t-77 -19.5q-69 0 -115.5 46t-46.5 114t46.5 114t115.5 46q87 0 130 -72v65h34v-229q0 -40 17.5 -63t50.5 -23q50 0 79 46.5t29 135.5
q0 136 -94 228.5t-233 92.5q-143 0 -241.5 -98.5t-98.5 -242.5q0 -148 101.5 -244.5t256.5 -96.5q98 0 170 27l4 -21q-75 -27 -174 -27q-164 0 -273 102.5t-109 259.5q0 151 104.5 256.5t259.5 105.5zM406 122q54 0 91 36.5t37 91.5t-37 91.5t-91 36.5q-55 0 -92.5 -36.5
t-37.5 -91.5t37.5 -91.5t92.5 -36.5z" />
    <glyph glyph-name="A" unicode="A" horiz-adv-x="629" 
d="M570 0l-72 185h-367l-72 -185h-39l274 700h40l275 -700h-39zM144 219h341l-171 438z" />
    <glyph glyph-name="B" unicode="B" horiz-adv-x="627" 
d="M447 361q59 -17 96 -65t37 -109q0 -77 -55 -132t-132 -55h-300v700h277q74 0 127 -53t53 -127q0 -53 -28 -95.5t-75 -63.5zM370 666h-240v-292h240q59 0 101 42.5t42 103.5q0 60 -42 103t-101 43zM393 34q62 0 106 44.5t44 108.5q0 63 -44 108t-106 45h-263v-306h263z
" />
    <glyph glyph-name="C" unicode="C" horiz-adv-x="758" 
d="M416 -11q-156 0 -259.5 105t-103.5 256t103.5 256t259.5 105q93 0 173 -45t124 -120l-32 -19q-39 68 -110 108.5t-155 40.5q-141 0 -233.5 -94.5t-92.5 -231.5t92.5 -231.5t233.5 -94.5q86 0 158 41.5t109 111.5l33 -18q-43 -77 -123.5 -123.5t-176.5 -46.5z" />
    <glyph glyph-name="D" unicode="D" horiz-adv-x="733" 
d="M350 700q143 0 236.5 -101.5t93.5 -248.5t-93.5 -248.5t-236.5 -101.5h-257v700h257zM350 34q128 0 211 91.5t83 224.5t-83 224.5t-211 91.5h-220v-632h220z" />
    <glyph glyph-name="E" unicode="E" horiz-adv-x="537" 
d="M130 34h360v-34h-397v700h392v-34h-355v-296h330v-34h-330v-302z" />
    <glyph glyph-name="F" unicode="F" horiz-adv-x="522" 
d="M475 666h-345v-302h337v-34h-337v-330h-37v700h382v-34z" />
    <glyph glyph-name="G" unicode="G" horiz-adv-x="810" 
d="M756 320v-19q0 -131 -92 -221.5t-242 -90.5q-160 0 -264.5 104.5t-104.5 256.5q0 151 103.5 256t259.5 105q95 0 175 -45.5t123 -122.5l-32 -18q-38 69 -109.5 110t-156.5 41q-141 0 -233.5 -94.5t-92.5 -231.5t93.5 -231.5t238.5 -94.5q130 0 211 75t87 187h-314v34h350
z" />
    <glyph glyph-name="H" unicode="H" horiz-adv-x="693" 
d="M563 700h37v-700h-37v343h-433v-343h-37v700h37v-323h433v323z" />
    <glyph glyph-name="I" unicode="I" horiz-adv-x="223" 
d="M93 700h37v-700h-37v700z" />
    <glyph glyph-name="J" unicode="J" horiz-adv-x="554" 
d="M250 -11q-73 0 -126.5 30.5t-76.5 85.5l30 18q40 -99 173 -99q85 0 134.5 44t49.5 118v514h36v-514q0 -91 -62 -144t-158 -53z" />
    <glyph glyph-name="K" unicode="K" horiz-adv-x="563" 
d="M553 0h-48l-375 350v-350h-37v700h37v-330l365 330h48l-373 -340z" />
    <glyph glyph-name="L" unicode="L" horiz-adv-x="497" 
d="M130 34h340v-34h-377v700h37v-666z" />
    <glyph glyph-name="M" unicode="M" horiz-adv-x="813" 
d="M720 700v-700h-37v646l-272 -445h-9l-272 445v-646h-37v700h47l267 -438l267 438h46z" />
    <glyph glyph-name="N" unicode="N" horiz-adv-x="693" 
d="M563 700h37v-700h-33l-437 634v-634h-37v700h34l436 -634v634z" />
    <glyph glyph-name="O" unicode="O" horiz-adv-x="828" 
d="M414 -11q-150 0 -255.5 105.5t-105.5 255.5t105.5 255.5t255.5 105.5t255.5 -105.5t105.5 -255.5t-105.5 -255.5t-255.5 -105.5zM414 24q135 0 229.5 95.5t94.5 230.5t-94.5 230.5t-229.5 95.5t-229.5 -95.5t-94.5 -230.5t94.5 -230.5t229.5 -95.5z" />
    <glyph glyph-name="P" unicode="P" horiz-adv-x="583" 
d="M320 700q94 0 155.5 -60.5t61.5 -152.5t-61.5 -153t-155.5 -61h-190v-273h-37v700h227zM320 307q78 0 129 51t51 129q0 77 -51 128t-129 51h-190v-359h190z" />
    <glyph glyph-name="Q" unicode="Q" horiz-adv-x="833" 
d="M775 350q0 -158 -117 -265l85 -84l-24 -23l-86 85q-98 -74 -219 -74q-149 0 -255 106t-106 255t106 255t255 106t255 -106t106 -255zM414 24q108 0 194 65l-158 156l24 22l159 -157q105 95 105 240q0 135 -95 230.5t-229 95.5t-229 -95.5t-95 -230.5t95 -230.5t229 -95.5
z" />
    <glyph glyph-name="R" unicode="R" horiz-adv-x="617" 
d="M590 0h-41l-173 293h-9h-237v-293h-37v700h274q84 0 143.5 -59.5t59.5 -143.5q0 -71 -44 -126.5t-112 -72.5zM130 327h237q68 0 117 50t49 120t-49 119.5t-117 49.5h-237v-339z" />
    <glyph glyph-name="S" unicode="S" horiz-adv-x="572" 
d="M301 -11q-97 0 -162.5 44t-88.5 116l31 18q19 -65 76.5 -104t144.5 -39q90 0 138.5 43t48.5 110q0 62 -48 97t-144 64q-43 13 -69.5 22.5t-58 25.5t-49 34t-29.5 45t-12 61q0 80 59 132.5t150 52.5q80 0 135.5 -40.5t81.5 -104.5l-30 -17q-49 127 -187 127
q-80 0 -126.5 -43.5t-46.5 -105.5q0 -33 13 -57.5t43.5 -42.5t56.5 -28.5t75 -26.5q43 -14 70.5 -25t59.5 -28t50 -35.5t30 -45.5t12 -60q0 -85 -60.5 -137t-163.5 -52z" />
    <glyph glyph-name="T" unicode="T" horiz-adv-x="540" 
d="M513 700v-34h-225v-666h-36v666h-225v34h486z" />
    <glyph glyph-name="U" unicode="U" horiz-adv-x="673" 
d="M337 -11q-115 0 -184.5 66.5t-69.5 173.5v471h37v-471q0 -90 56.5 -147.5t160.5 -57.5q103 0 159.5 57.5t56.5 147.5v471h37v-471q0 -107 -69 -173.5t-184 -66.5z" />
    <glyph glyph-name="V" unicode="V" horiz-adv-x="601" 
d="M281 0l-264 700h39l245 -654l244 654h40l-264 -700h-40z" />
    <glyph glyph-name="W" unicode="W" horiz-adv-x="987" 
d="M240 0l-203 700h38l187 -652l210 652h43l209 -652l188 652h38l-203 -700h-44l-210 653l-209 -653h-44z" />
    <glyph glyph-name="X" unicode="X" horiz-adv-x="567" 
d="M540 0h-43l-214 326l-214 -326h-42l235 358l-224 342h42l204 -310l203 310h42l-224 -342z" />
    <glyph glyph-name="Y" unicode="Y" horiz-adv-x="572" 
d="M562 700l-258 -411v-289h-37v290l-257 410h41l235 -376l235 376h41z" />
    <glyph glyph-name="Z" unicode="Z" horiz-adv-x="527" 
d="M88 34h402v-34h-443v34l393 632h-383v34h423v-34z" />
    <glyph glyph-name="bracketleft" unicode="[" horiz-adv-x="273" 
d="M253 766h-151v-832h151v-34h-186v900h186v-34z" />
    <glyph glyph-name="backslash" unicode="\" horiz-adv-x="523" 
d="M447 -100l-400 900h30l400 -900h-30z" />
    <glyph glyph-name="bracketright" unicode="]" horiz-adv-x="273" 
d="M206 800v-900h-186v34h151v832h-151v34h186z" />
    <glyph glyph-name="asciicircum" unicode="^" horiz-adv-x="504" 
d="M269 700l175 -300h-40l-152 260l-152 -260h-40l175 300h34z" />
    <glyph glyph-name="underscore" unicode="_" horiz-adv-x="493" 
d="M40 -126v34h413v-34h-413z" />
    <glyph glyph-name="grave" unicode="`" horiz-adv-x="161" 
d="M141 570l-80 123h-41l88 -123h33z" />
    <glyph glyph-name="a" unicode="a" horiz-adv-x="653" 
d="M535 500h35v-500h-35v134q-30 -66 -91 -105.5t-137 -39.5q-108 0 -184 75.5t-76 185.5t76 185.5t184 75.5q76 0 137 -39.5t91 -105.5v134zM308 23q95 0 161 65.5t66 161.5t-66 161.5t-161 65.5t-160.5 -65.5t-65.5 -161.5t65.5 -161.5t160.5 -65.5z" />
    <glyph glyph-name="b" unicode="b" horiz-adv-x="653" 
d="M347 511q108 0 184 -75.5t76 -185.5t-76 -185.5t-184 -75.5q-77 0 -137 39t-91 105v-133h-36v700h36v-333q31 66 91 105t137 39zM345 23q95 0 160.5 65.5t65.5 161.5t-65.5 161.5t-160.5 65.5t-160.5 -65.5t-65.5 -161.5t65.5 -161.5t160.5 -65.5z" />
    <glyph glyph-name="c" unicode="c" 
d="M308 -11q-111 0 -186 75t-75 186t75 186t186 75q73 0 132 -34t87 -91l-29 -17q-24 49 -75 78.5t-115 29.5q-96 0 -161 -65.5t-65 -161.5t65 -161.5t161 -65.5q64 0 114.5 29.5t76.5 78.5l29 -17q-29 -57 -88 -91t-132 -34z" />
    <glyph glyph-name="d" unicode="d" horiz-adv-x="653" 
d="M534 700h36v-700h-36v133q-31 -66 -91 -105t-137 -39q-108 0 -184 75.5t-76 185.5t76 185.5t184 75.5q77 0 137 -39t91 -105v333zM308 23q95 0 160.5 65.5t65.5 161.5t-65.5 161.5t-160.5 65.5t-160.5 -65.5t-65.5 -161.5t65.5 -161.5t160.5 -65.5z" />
    <glyph glyph-name="e" unicode="e" horiz-adv-x="594" 
d="M302 511q110 0 178.5 -78t68.5 -185q0 -12 -1 -17h-465q6 -93 69 -150.5t155 -57.5q63 0 111.5 26.5t72.5 70.5l31 -18q-30 -52 -86.5 -82.5t-128.5 -30.5q-114 0 -187 73.5t-73 187.5q0 111 72 186t183 75zM302 477q-92 0 -153.5 -59.5t-66.5 -153.5h431
q-7 97 -66.5 155t-144.5 58z" />
    <glyph glyph-name="f" unicode="f" horiz-adv-x="306" 
d="M306 677q-154 13 -154 -144v-33h154v-33h-154v-467h-35v467h-89v33h89v33q0 90 47.5 137.5t141.5 40.5v-34z" />
    <glyph glyph-name="g" unicode="g" horiz-adv-x="660" 
d="M541 500h36v-473q0 -110 -68 -174t-180 -64q-86 0 -147 33t-87 87l30 17q21 -45 72.5 -74t131.5 -29q100 0 156 55t56 149v106q-31 -66 -91 -105t-137 -39q-108 0 -184 75.5t-76 185.5t76 185.5t184 75.5q77 0 137 -39t91 -105v133zM315 23q95 0 160.5 65.5t65.5 161.5
t-65.5 161.5t-160.5 65.5t-160.5 -65.5t-65.5 -161.5t65.5 -161.5t160.5 -65.5z" />
    <glyph glyph-name="h" unicode="h" horiz-adv-x="569" 
d="M308 511q87 0 139.5 -54t52.5 -143v-314h-35v314q0 73 -43 118t-117 45q-82 0 -134 -56t-52 -155v-266h-36v700h36v-311q26 61 75.5 91.5t113.5 30.5z" />
    <glyph glyph-name="i" unicode="i" horiz-adv-x="202" 
d="M101 636q-13 0 -22 9.5t-9 21.5q0 13 9 22.5t22 9.5t22 -9.5t9 -22.5q0 -12 -9 -21.5t-22 -9.5zM83 0v500h36v-500h-36z" />
    <glyph glyph-name="j" unicode="j" horiz-adv-x="216" 
d="M115 699q13 0 22 -9.5t9 -22.5q0 -12 -9 -21.5t-22 -9.5t-22 9.5t-9 21.5q0 13 9 22.5t22 9.5zM97 -73v573h36v-573q0 -72 -39.5 -108.5t-113.5 -29.5v34q117 -13 117 104z" />
    <glyph glyph-name="k" unicode="k" horiz-adv-x="472" 
d="M445 0h-48l-278 249v-249h-36v700h36v-430l268 230h48l-279 -240z" />
    <glyph glyph-name="l" unicode="l" horiz-adv-x="202" 
d="M83 0v730h36v-730h-36z" />
    <glyph glyph-name="m" unicode="m" horiz-adv-x="866" 
d="M619 511q79 0 128.5 -49t49.5 -140v-322h-36v322q0 75 -38.5 115t-103.5 40q-71 0 -116 -51t-45 -146v-280h-36v322q0 75 -37.5 115t-100.5 40q-72 0 -118.5 -51t-46.5 -146v-280h-36v500h36v-98q48 109 168 109q58 0 101 -29.5t60 -85.5q24 57 70 86t101 29z" />
    <glyph glyph-name="n" unicode="n" horiz-adv-x="569" 
d="M308 511q87 0 139.5 -54t52.5 -143v-314h-35v314q0 73 -43 118t-117 45q-82 0 -134 -56t-52 -155v-266h-36v500h36v-111q26 61 75.5 91.5t113.5 30.5z" />
    <glyph glyph-name="o" unicode="o" horiz-adv-x="617" 
d="M308 -11q-109 0 -185 75.5t-76 185.5t76 185.5t185 75.5q110 0 186 -75.5t76 -185.5t-76 -185.5t-186 -75.5zM308 23q95 0 161 65.5t66 161.5t-66 161.5t-161 65.5t-160.5 -65.5t-65.5 -161.5t65.5 -161.5t160.5 -65.5z" />
    <glyph glyph-name="p" unicode="p" horiz-adv-x="653" 
d="M347 511q108 0 184 -75.5t76 -185.5t-76 -185.5t-184 -75.5q-77 0 -137 39t-91 105v-333h-36v700h36v-133q31 66 91 105t137 39zM345 23q95 0 160.5 65.5t65.5 161.5t-65.5 161.5t-160.5 65.5t-160.5 -65.5t-65.5 -161.5t65.5 -161.5t160.5 -65.5z" />
    <glyph glyph-name="q" unicode="q" horiz-adv-x="653" 
d="M534 500h36v-700h-36v333q-31 -66 -91 -105t-137 -39q-108 0 -184 75.5t-76 185.5t76 185.5t184 75.5q77 0 137 -39t91 -105v133zM308 23q95 0 160.5 65.5t65.5 161.5t-65.5 161.5t-160.5 65.5t-160.5 -65.5t-65.5 -161.5t65.5 -161.5t160.5 -65.5z" />
    <glyph glyph-name="r" unicode="r" horiz-adv-x="321" 
d="M119 387q22 61 70 90.5t106 29.5v-34q-74 0 -125 -50.5t-51 -144.5v-278h-36v500h36v-113z" />
    <glyph glyph-name="s" unicode="s" horiz-adv-x="461" 
d="M101 370q0 -40 32.5 -62.5t78.5 -33t92 -22.5t78.5 -41.5t32.5 -79.5q0 -61 -49.5 -101.5t-127.5 -40.5q-148 0 -188 109l29 17q31 -92 159 -92q61 0 101 29.5t40 78.5q0 41 -32.5 64t-78.5 33.5t-92 22.5t-78.5 41t-32.5 78q0 60 46.5 100.5t122.5 40.5
q59 0 102.5 -26.5t62.5 -71.5l-29 -17q-16 39 -52 60t-84 21q-58 0 -95.5 -29.5t-37.5 -77.5z" />
    <glyph glyph-name="t" unicode="t" horiz-adv-x="378" 
d="M331 467h-154v-349q0 -63 34 -80t120 -7v-31q-98 -15 -143.5 12.5t-45.5 105.5v349h-115v33h115v129l35 11v-140h154v-33z" />
    <glyph glyph-name="u" unicode="u" horiz-adv-x="569" 
d="M450 500h36v-500h-36v111q-26 -61 -75.5 -91.5t-113.5 -30.5q-87 0 -139.5 54t-52.5 143v314h35v-314q0 -73 43 -118t117 -45q82 0 134 56t52 155v266z" />
    <glyph glyph-name="v" unicode="v" horiz-adv-x="511" 
d="M457 500h38l-219 -500h-41l-218 500h37l202 -463z" />
    <glyph glyph-name="w" unicode="w" horiz-adv-x="770" 
d="M697 500h36l-160 -500h-39l-149 452l-149 -452h-39l-160 500h36l144 -454l149 454h38l149 -454z" />
    <glyph glyph-name="x" unicode="x" horiz-adv-x="503" 
d="M477 0h-43l-182 230l-182 -230h-43l204 257l-193 243h42l172 -216l171 216h43l-193 -243z" />
    <glyph glyph-name="y" unicode="y" horiz-adv-x="510" 
d="M457 500h36l-217 -546q-30 -74 -82 -116.5t-113 -37.5v33q50 -5 92.5 30t68.5 99l10 22l-235 516h36l216 -473z" />
    <glyph glyph-name="z" unicode="z" horiz-adv-x="483" 
d="M105 33h332v-33h-380v22l321 445h-311v33h360v-22z" />
    <glyph glyph-name="braceleft" unicode="{" horiz-adv-x="343" 
d="M323 -109q-75 -7 -113.5 28t-38.5 106v209q0 55 -27.5 77.5t-86.5 22.5v34q59 0 86.5 22.5t27.5 77.5v208q0 71 38.5 106t113.5 28v-33q-117 12 -117 -101v-208q0 -100 -81 -118q81 -16 81 -116v-209q0 -113 117 -100v-34z" />
    <glyph glyph-name="bar" unicode="|" horiz-adv-x="222" 
d="M93 -200v920h36v-920h-36z" />
    <glyph glyph-name="braceright" unicode="}" horiz-adv-x="343" 
d="M20 -109v34q117 -13 117 100v209q0 100 81 116q-81 18 -81 118v208q0 113 -117 101v33q75 7 113.5 -28t38.5 -106v-208q0 -55 27.5 -77.5t86.5 -22.5v-34q-59 0 -86.5 -22.5t-27.5 -77.5v-209q0 -71 -38.5 -106t-113.5 -28z" />
    <glyph glyph-name="asciitilde" unicode="~" horiz-adv-x="579" 
d="M481 407l32 -14q-8 -28 -23.5 -50.5t-42 -40t-70 -10.5t-96.5 43q-44 31 -79 38t-55 -7t-31 -32t-17 -41l-32 14q7 27 23 50t42.5 40.5t69.5 10.5t96 -43q45 -31 80 -38t55 7t31 31.5t17 41.5z" />
    <glyph glyph-name="exclamdown" unicode="&#xa1;" horiz-adv-x="210" 
d="M105 510q15 0 25 -10t10 -25t-10 -25t-25 -10t-25 10t-10 25t10 25t25 10zM90 330h30l5 -330v-200h-40v200z" />
    <glyph glyph-name="cent" unicode="&#xa2;" 
d="M499 231l29 -17q-29 -57 -88 -91t-132 -34q-39 0 -78 11l-33 -100h-30l36 110q-71 30 -113.5 94.5t-42.5 145.5q0 111 75 186t186 75q30 0 59 -6l32 95h30l-34 -103q94 -32 132 -111l-29 -17q-34 70 -114 96l-143 -433q31 -9 67 -9q64 0 114.5 29.5t76.5 78.5zM82 350
q0 -70 36 -125.5t96 -82.5l143 430q-27 5 -49 5q-96 0 -161 -65.5t-65 -161.5z" />
    <glyph glyph-name="sterling" unicode="&#xa3;" horiz-adv-x="595" 
d="M188 35h389v-35h-530v35h104v262h-84v33h84v187q0 89 57.5 141.5t141.5 52.5q66 0 112.5 -33t69.5 -94l-30 -17q-38 109 -152 109q-73 0 -117.5 -43.5t-44.5 -115.5v-187h250v-33h-250v-262z" />
    <glyph glyph-name="currency" unicode="&#xa4;" horiz-adv-x="553" 
d="M488 350q0 -82 -52 -140l71 -71l-20 -18l-71 69q-59 -51 -139 -51q-82 0 -140 52l-70 -70l-20 18l70 71q-52 60 -52 140t52 140l-70 71l20 18l70 -69q59 51 140 51q82 0 140 -52l70 70l20 -18l-71 -71q52 -60 52 -140zM100 350q0 -75 51.5 -126t125.5 -51t125 51t51 126
t-51 126t-125 51t-125.5 -51t-51.5 -126z" />
    <glyph glyph-name="yen" unicode="&#xa5;" horiz-adv-x="565" 
d="M562 700l-226 -360h156v-31h-175l-13 -20v-73h188v-32h-188v-184h-37v184h-192v32h192v74l-12 19h-180v31h161l-226 360h41l225 -360h20l225 360h41z" />
    <glyph glyph-name="brokenbar" unicode="&#xa6;" horiz-adv-x="222" 
d="M93 350v370h36v-370h-36zM93 -200v370h36v-370h-36z" />
    <glyph glyph-name="section" unicode="&#xa7;" horiz-adv-x="507" 
d="M392 136q48 -43 48 -103q0 -63 -48.5 -104t-128.5 -41q-72 0 -121.5 32.5t-71.5 95.5l29 17q35 -112 164 -112q62 0 102 30.5t40 81.5q0 22 -10.5 42t-23.5 33t-39.5 28.5t-44 23.5t-51.5 23q-39 17 -62 28.5t-51.5 31.5t-42 45.5t-13.5 57.5q0 73 69 117q-46 41 -46 101
q0 63 47 105t122 42q62 0 108 -29.5t68 -84.5l-29 -17q-38 97 -147 97q-58 0 -96 -31.5t-38 -81.5q0 -12 3 -23t6 -19.5t11.5 -17.5t14 -15t18.5 -14.5t19 -12.5t23 -12t23.5 -11t25.5 -11t25 -11q39 -17 61 -28.5t50.5 -32t41.5 -46.5t13 -58q0 -72 -68 -116zM102 346
q0 -25 11.5 -45.5t35 -36.5t45 -26.5t55.5 -24.5q79 -31 116 -56q60 35 60 95q0 48 -37 77t-108 58q-88 37 -117 56q-61 -35 -61 -97z" />
    <glyph glyph-name="dieresis" unicode="&#xa8;" horiz-adv-x="267" 
d="M48 578q-11 0 -19.5 8.5t-8.5 20.5q0 11 8.5 19.5t19.5 8.5q12 0 20.5 -8.5t8.5 -19.5q0 -12 -8.5 -20.5t-20.5 -8.5zM218 578q-11 0 -19.5 8.5t-8.5 20.5q0 11 8.5 19.5t19.5 8.5q12 0 20.5 -8.5t8.5 -19.5q0 -12 -8.5 -20.5t-20.5 -8.5z" />
    <glyph glyph-name="copyright" unicode="&#xa9;" horiz-adv-x="831" 
d="M415 -11q-150 0 -256 105.5t-106 255.5t106 255.5t256 105.5t256 -105.5t106 -255.5t-106 -255.5t-256 -105.5zM415 11q140 0 239.5 99t99.5 240t-99.5 240t-239.5 99t-239 -99t-99 -240t99 -240t239 -99zM418 158q-83 0 -138.5 55.5t-55.5 136.5t55.5 136.5t138.5 55.5
q54 0 97 -25t66 -68l-30 -17q-17 36 -52.5 56.5t-80.5 20.5q-69 0 -114 -46.5t-45 -112.5t45 -112.5t114 -46.5q44 0 80 20.5t54 56.5l29 -17q-22 -43 -65.5 -68t-97.5 -25z" />
    <glyph glyph-name="guillemotleft" unicode="&#xab;" horiz-adv-x="447" 
d="M235 476l-103 -167l103 -167h-42l-103 167l103 167h42zM357 476l-104 -167l104 -167h-42l-104 167l104 167h42z" />
    <glyph glyph-name="logicalnot" unicode="&#xac;" horiz-adv-x="520" 
d="M67 382h386v-167h-35v134h-351v33z" />
    <glyph glyph-name="registered" unicode="&#xae;" horiz-adv-x="831" 
d="M415 711q150 0 256 -105.5t106 -255.5t-106 -255.5t-256 -105.5t-256 105.5t-106 255.5t106 255.5t256 105.5zM415 11q140 0 239.5 99t99.5 240t-99.5 240t-239.5 99t-239 -99t-99 -240t99 -240t239 -99zM553 423q0 -87 -83 -107l91 -151h-38l-87 146q-5 -1 -17 -1h-73
v-145h-34v370h107q65 0 99.5 -33t34.5 -79zM346 342h75q98 0 98 81q0 35 -26 57.5t-72 22.5h-75v-161z" />
    <glyph glyph-name="macron" unicode="&#xaf;" horiz-adv-x="287" 
d="M20 594v30h247v-30h-247z" />
    <glyph glyph-name="degree" unicode="&#xb0;" horiz-adv-x="386" 
d="M193 523q-62 0 -104 42t-42 102t42 101.5t104 41.5t104 -41.5t42 -101.5t-41.5 -102t-104.5 -42zM193 555q48 0 80 32t32 80q0 47 -32 79t-80 32t-80 -32t-32 -79t32 -79.5t80 -32.5z" />
    <glyph glyph-name="plusminus" unicode="&#xb1;" horiz-adv-x="527" 
d="M281 428h179v-33h-179v-175h-35v175h-179v33h179v175h35v-175zM67 97v33h393v-33h-393z" />
    <glyph glyph-name="acute" unicode="&#xb4;" horiz-adv-x="161" 
d="M20 570h33l88 123h-41z" />
    <glyph glyph-name="uni00B5" unicode="&#xb5;" horiz-adv-x="609" 
d="M546 33h26v-33h-29q-36 0 -57 21.5t-21 58.5v33q-26 -61 -75.5 -92.5t-114.5 -31.5q-110 0 -156 84v-273h-36v700h36v-314q0 -73 42.5 -118t116.5 -45q83 0 135 56t52 155v266h35v-420q0 -22 12.5 -34.5t33.5 -12.5z" />
    <glyph glyph-name="paragraph" unicode="&#xb6;" horiz-adv-x="560" 
d="M513 700v-33h-60v-867h-34v867h-151v-867h-35v527q-77 0 -131.5 54.5t-54.5 131.5q0 78 54.5 132.5t131.5 54.5h280z" />
    <glyph glyph-name="periodcentered" unicode="&#xb7;" horiz-adv-x="197" 
d="M98 305q-14 0 -24.5 10t-10.5 25t10.5 25t24.5 10q15 0 25 -10t10 -25t-10 -25t-25 -10z" />
    <glyph glyph-name="cedilla" unicode="&#xb8;" horiz-adv-x="212" 
d="M109 -68q37 0 63.5 -18t26.5 -49q0 -40 -45 -60.5t-140 -11.5v29q153 -16 153 43q0 47 -89 43v92h31v-68z" />
    <glyph glyph-name="guillemotright" unicode="&#xbb;" horiz-adv-x="447" 
d="M132 476l104 -167l-104 -167h-42l104 167l-104 167h42zM254 476l103 -167l-103 -167h-42l103 167l-103 167h42z" />
    <glyph glyph-name="onequarter" unicode="&#xbc;" horiz-adv-x="836" 
d="M170 300h-34v360l-110 -38l-9 29l128 49h25v-400zM553 700h33l-413 -700h-34zM810 116v-31h-59v-85h-34v85h-220v31l153 284h35l-152 -284h184v113h34v-113h59z" />
    <glyph glyph-name="onehalf" unicode="&#xbd;" horiz-adv-x="823" 
d="M170 300h-34v360l-110 -38l-9 29l128 49h25v-400zM553 700h33l-413 -700h-34zM567 32h220v-32h-271v27l181 171q48 45 48 96q0 36 -25.5 61t-70.5 25q-78 0 -102 -71l-29 16q14 40 48.5 63.5t83.5 23.5q59 0 94 -34t35 -84q0 -62 -58 -117z" />
    <glyph glyph-name="threequarters" unicode="&#xbe;" horiz-adv-x="936" 
d="M303 414q0 -55 -37 -90.5t-101 -35.5q-101 0 -133 77l28 16q25 -61 105 -61q50 0 77 26.5t27 67.5q0 40 -27 66.5t-77 26.5h-3l-17 25l103 136h-205v32h244v-32l-101 -133q55 -6 86 -39.5t31 -81.5zM653 700h33l-413 -700h-34zM910 116v-31h-59v-85h-34v85h-220v31
l153 284h35l-152 -284h184v113h34v-113h59z" />
    <glyph glyph-name="questiondown" unicode="&#xbf;" horiz-adv-x="528" 
d="M280 510q14 0 24.5 -10t10.5 -25t-10.5 -25t-24.5 -10q-15 0 -25 10t-10 25t10 25t25 10zM298 330q0 -48 -20 -91t-49 -75t-57.5 -62t-48.5 -65.5t-20 -72.5q0 -64 43.5 -102t120.5 -38q63 0 110 30t63 80l31 -17q-21 -59 -77.5 -93.5t-126.5 -34.5q-89 0 -144.5 46.5
t-55.5 128.5q0 41 20 79t48.5 68.5t57 62t48.5 72t20 84.5h37z" />
    <glyph glyph-name="Agrave" unicode="&#xc0;" horiz-adv-x="629" 
d="M351 770h-33l-88 123h41zM570 0l-72 185h-367l-72 -185h-39l274 700h40l275 -700h-39zM144 219h341l-171 438z" />
    <glyph glyph-name="Aacute" unicode="&#xc1;" horiz-adv-x="629" 
d="M402 893l-88 -123h-33l80 123h41zM570 0l-72 185h-367l-72 -185h-39l274 700h40l275 -700h-39zM144 219h341l-171 438z" />
    <glyph glyph-name="Acircumflex" unicode="&#xc2;" horiz-adv-x="629" 
d="M312 872l-90 -102h-40l110 123h41l110 -123h-40zM570 0l-72 185h-367l-72 -185h-39l274 700h40l275 -700h-39zM144 219h341l-171 438z" />
    <glyph glyph-name="Atilde" unicode="&#xc3;" horiz-adv-x="629" 
d="M311 818q-44 43 -71 34.5t-27 -65.5h-31q0 75 41.5 93.5t94.5 -32.5q44 -43 70.5 -34t26.5 65h31q0 -75 -41.5 -93t-93.5 32zM570 0l-72 185h-367l-72 -185h-39l274 700h40l275 -700h-39zM144 219h341l-171 438z" />
    <glyph glyph-name="Adieresis" unicode="&#xc4;" horiz-adv-x="629" 
d="M229 778q-11 0 -19.5 8.5t-8.5 20.5q0 11 8.5 19.5t19.5 8.5q12 0 20.5 -8.5t8.5 -19.5q0 -12 -8.5 -20.5t-20.5 -8.5zM399 778q-11 0 -19.5 8.5t-8.5 20.5q0 11 8.5 19.5t19.5 8.5q12 0 20.5 -8.5t8.5 -19.5q0 -12 -8.5 -20.5t-20.5 -8.5zM570 0l-72 185h-367l-72 -185
h-39l274 700h40l275 -700h-39zM144 219h341l-171 438z" />
    <glyph glyph-name="Aring" unicode="&#xc5;" horiz-adv-x="629" 
d="M570 0l-72 185h-367l-72 -185h-39l267 683q-32 8 -51.5 32.5t-19.5 57.5q0 40 27.5 66.5t71.5 26.5t71 -26.5t27 -66.5q0 -34 -19.5 -58.5t-52.5 -31.5l268 -683h-39zM246 773q0 -29 19 -47.5t50 -18.5t49.5 18t18.5 48t-18.5 48t-49.5 18t-50 -18.5t-19 -47.5zM144 219
h341l-171 438z" />
    <glyph glyph-name="AE" unicode="&#xc6;" horiz-adv-x="865" 
d="M485 34h334v-34h-370v193h-282l-118 -193h-42l428 700h379v-34h-329v-296h307v-34h-307v-302zM187 227h262v429z" />
    <glyph glyph-name="Ccedilla" unicode="&#xc7;" horiz-adv-x="758" 
d="M716 159q-41 -74 -116.5 -120t-165.5 -50v-57q37 0 63.5 -18t26.5 -49q0 -40 -45 -60.5t-140 -11.5v29q153 -16 153 43q0 47 -89 43v81q-152 5 -251 109t-99 252q0 151 103.5 256t259.5 105q93 0 173 -45t124 -120l-32 -19q-39 68 -110 108.5t-155 40.5
q-141 0 -233.5 -94.5t-92.5 -231.5t92.5 -231.5t233.5 -94.5q86 0 158 41.5t109 111.5z" />
    <glyph glyph-name="Egrave" unicode="&#xc8;" horiz-adv-x="537" 
d="M326 770h-33l-88 123h41zM130 34h360v-34h-397v700h392v-34h-355v-296h330v-34h-330v-302z" />
    <glyph glyph-name="Eacute" unicode="&#xc9;" horiz-adv-x="537" 
d="M377 893l-88 -123h-33l80 123h41zM130 34h360v-34h-397v700h392v-34h-355v-296h330v-34h-330v-302z" />
    <glyph glyph-name="Ecircumflex" unicode="&#xca;" horiz-adv-x="537" 
d="M287 872l-90 -102h-40l110 123h41l110 -123h-40zM130 34h360v-34h-397v700h392v-34h-355v-296h330v-34h-330v-302z" />
    <glyph glyph-name="Edieresis" unicode="&#xcb;" horiz-adv-x="537" 
d="M204 778q-11 0 -19.5 8.5t-8.5 20.5q0 11 8.5 19.5t19.5 8.5q12 0 20.5 -8.5t8.5 -19.5q0 -12 -8.5 -20.5t-20.5 -8.5zM374 778q-11 0 -19.5 8.5t-8.5 20.5q0 11 8.5 19.5t19.5 8.5q12 0 20.5 -8.5t8.5 -19.5q0 -12 -8.5 -20.5t-20.5 -8.5zM130 34h360v-34h-397v700h392
v-34h-355v-296h330v-34h-330v-302z" />
    <glyph glyph-name="Igrave" unicode="&#xcc;" horiz-adv-x="223" 
d="M149 770l-80 123h-41l88 -123h33zM93 700h37v-700h-37v700z" />
    <glyph glyph-name="Iacute" unicode="&#xcd;" horiz-adv-x="223" 
d="M79 770h33l88 123h-41zM93 700h37v-700h-37v700z" />
    <glyph glyph-name="Icircumflex" unicode="&#xce;" horiz-adv-x="223" 
d="M131 893l110 -123h-40l-91 102l-90 -102h-40l110 123h41zM93 0v700h37v-700h-37z" />
    <glyph glyph-name="Idieresis" unicode="&#xcf;" horiz-adv-x="223" 
d="M27 778q-11 0 -19.5 8.5t-8.5 20.5q0 11 8.5 19.5t19.5 8.5q12 0 20.5 -8.5t8.5 -19.5q0 -12 -8.5 -20.5t-20.5 -8.5zM197 778q-11 0 -19.5 8.5t-8.5 20.5q0 11 8.5 19.5t19.5 8.5q12 0 20.5 -8.5t8.5 -19.5q0 -12 -8.5 -20.5t-20.5 -8.5zM93 700h37v-700h-37v700z" />
    <glyph glyph-name="Eth" unicode="&#xd0;" horiz-adv-x="753" 
d="M370 700q143 0 236.5 -101.5t93.5 -248.5t-93.5 -248.5t-236.5 -101.5h-257v333h-63v34h63v333h257zM370 34q128 0 211 91.5t83 224.5t-83 224.5t-211 91.5h-220v-299h260v-34h-260v-299h220z" />
    <glyph glyph-name="Ntilde" unicode="&#xd1;" horiz-adv-x="693" 
d="M208 787q0 75 41.5 93.5t94.5 -32.5q44 -43 70.5 -34t26.5 65h31q0 -75 -41.5 -93t-93.5 32q-44 43 -71 34.5t-27 -65.5h-31zM563 700h37v-700h-33l-437 634v-634h-37v700h34l436 -634v634z" />
    <glyph glyph-name="Ograve" unicode="&#xd2;" horiz-adv-x="828" 
d="M451 770l-80 123h-41l88 -123h33zM414 -11q-150 0 -255.5 105.5t-105.5 255.5t105.5 255.5t255.5 105.5t255.5 -105.5t105.5 -255.5t-105.5 -255.5t-255.5 -105.5zM414 24q135 0 229.5 95.5t94.5 230.5t-94.5 230.5t-229.5 95.5t-229.5 -95.5t-94.5 -230.5t94.5 -230.5
t229.5 -95.5z" />
    <glyph glyph-name="Oacute" unicode="&#xd3;" horiz-adv-x="828" 
d="M381 770h33l88 123h-41zM414 -11q-150 0 -255.5 105.5t-105.5 255.5t105.5 255.5t255.5 105.5t255.5 -105.5t105.5 -255.5t-105.5 -255.5t-255.5 -105.5zM414 24q135 0 229.5 95.5t94.5 230.5t-94.5 230.5t-229.5 95.5t-229.5 -95.5t-94.5 -230.5t94.5 -230.5
t229.5 -95.5z" />
    <glyph glyph-name="Ocircumflex" unicode="&#xd4;" horiz-adv-x="828" 
d="M412 872l-90 -102h-40l110 123h41l110 -123h-40zM414 711q150 0 255.5 -105.5t105.5 -255.5t-105.5 -255.5t-255.5 -105.5t-255.5 105.5t-105.5 255.5t105.5 255.5t255.5 105.5zM414 24q135 0 229.5 95.5t94.5 230.5t-94.5 230.5t-229.5 95.5t-229.5 -95.5t-94.5 -230.5
t94.5 -230.5t229.5 -95.5z" />
    <glyph glyph-name="Otilde" unicode="&#xd5;" horiz-adv-x="828" 
d="M282 787q0 75 41.5 93.5t94.5 -32.5q44 -43 70.5 -34t26.5 65h31q0 -75 -41.5 -93t-93.5 32q-44 43 -71 34.5t-27 -65.5h-31zM414 -11q-150 0 -255.5 105.5t-105.5 255.5t105.5 255.5t255.5 105.5t255.5 -105.5t105.5 -255.5t-105.5 -255.5t-255.5 -105.5zM414 24
q135 0 229.5 95.5t94.5 230.5t-94.5 230.5t-229.5 95.5t-229.5 -95.5t-94.5 -230.5t94.5 -230.5t229.5 -95.5z" />
    <glyph glyph-name="Odieresis" unicode="&#xd6;" horiz-adv-x="828" 
d="M329 778q-11 0 -19.5 8.5t-8.5 20.5q0 11 8.5 19.5t19.5 8.5q12 0 20.5 -8.5t8.5 -19.5q0 -12 -8.5 -20.5t-20.5 -8.5zM499 778q-11 0 -19.5 8.5t-8.5 20.5q0 11 8.5 19.5t19.5 8.5q12 0 20.5 -8.5t8.5 -19.5q0 -12 -8.5 -20.5t-20.5 -8.5zM414 -11q-150 0 -255.5 105.5
t-105.5 255.5t105.5 255.5t255.5 105.5t255.5 -105.5t105.5 -255.5t-105.5 -255.5t-255.5 -105.5zM414 24q135 0 229.5 95.5t94.5 230.5t-94.5 230.5t-229.5 95.5t-229.5 -95.5t-94.5 -230.5t94.5 -230.5t229.5 -95.5z" />
    <glyph glyph-name="multiply" unicode="&#xd7;" horiz-adv-x="466" 
d="M403 497l-147 -147l147 -147l-24 -22l-146 146l-145 -146l-25 22l147 147l-147 147l25 22l145 -146l146 146z" />
    <glyph glyph-name="Oslash" unicode="&#xd8;" horiz-adv-x="838" 
d="M670 614q115 -107 115 -264q0 -150 -105.5 -255.5t-255.5 -105.5q-126 0 -224 77l-57 -66l-25 15l60 70q-115 107 -115 265q0 150 105.5 255.5t255.5 105.5q126 0 224 -77l57 66l26 -15zM100 350q0 -140 101 -238l424 494q-87 70 -201 70q-135 0 -229.5 -95.5
t-94.5 -230.5zM424 24q135 0 229.5 95.5t94.5 230.5q0 141 -101 237l-424 -494q88 -69 201 -69z" />
    <glyph glyph-name="Ugrave" unicode="&#xd9;" horiz-adv-x="673" 
d="M370 770l-80 123h-41l88 -123h33zM337 -11q-115 0 -184.5 66.5t-69.5 173.5v471h37v-471q0 -90 56.5 -147.5t160.5 -57.5q103 0 159.5 57.5t56.5 147.5v471h37v-471q0 -107 -69 -173.5t-184 -66.5z" />
    <glyph glyph-name="Uacute" unicode="&#xda;" horiz-adv-x="673" 
d="M300 770h33l88 123h-41zM337 -11q-115 0 -184.5 66.5t-69.5 173.5v471h37v-471q0 -90 56.5 -147.5t160.5 -57.5q103 0 159.5 57.5t56.5 147.5v471h37v-471q0 -107 -69 -173.5t-184 -66.5z" />
    <glyph glyph-name="Ucircumflex" unicode="&#xdb;" horiz-adv-x="673" 
d="M331 872l-90 -102h-40l110 123h41l110 -123h-40zM553 700h37v-471q0 -107 -69 -173.5t-184 -66.5t-184.5 66.5t-69.5 173.5v471h37v-471q0 -90 56.5 -147.5t160.5 -57.5q103 0 159.5 57.5t56.5 147.5v471z" />
    <glyph glyph-name="Udieresis" unicode="&#xdc;" horiz-adv-x="673" 
d="M248 778q-11 0 -19.5 8.5t-8.5 20.5q0 11 8.5 19.5t19.5 8.5q12 0 20.5 -8.5t8.5 -19.5q0 -12 -8.5 -20.5t-20.5 -8.5zM418 778q-11 0 -19.5 8.5t-8.5 20.5q0 11 8.5 19.5t19.5 8.5q12 0 20.5 -8.5t8.5 -19.5q0 -12 -8.5 -20.5t-20.5 -8.5zM337 -11q-115 0 -184.5 66.5
t-69.5 173.5v471h37v-471q0 -90 56.5 -147.5t160.5 -57.5q103 0 159.5 57.5t56.5 147.5v471h37v-471q0 -107 -69 -173.5t-184 -66.5z" />
    <glyph glyph-name="Yacute" unicode="&#xdd;" horiz-adv-x="572" 
d="M373 893l-88 -123h-33l80 123h41zM562 700l-258 -411v-289h-37v290l-257 410h41l235 -376l235 376h41z" />
    <glyph glyph-name="Thorn" unicode="&#xde;" horiz-adv-x="583" 
d="M320 563q94 0 155.5 -60.5t61.5 -152.5t-61.5 -152.5t-155.5 -60.5h-190v-137h-37v700h37v-137h190zM320 171q78 0 129 50.5t51 128.5t-51 128.5t-129 50.5h-190v-358h190z" />
    <glyph glyph-name="germandbls" unicode="&#xdf;" horiz-adv-x="516" 
d="M290 -4v32q77 -4 120.5 26t43.5 87q0 35 -23.5 72t-51 63t-51 58.5t-23.5 59.5q0 21 14.5 42.5t32 37t32 39.5t14.5 49q0 51 -34 83t-94 32q-70 0 -110.5 -42.5t-40.5 -118.5v-516h-36v516q0 91 51 143t136 52q77 0 120 -43t43 -106q0 -29 -14.5 -55.5t-32.5 -42.5
t-32.5 -35t-14.5 -35q0 -18 15.5 -40t37.5 -44t44 -46.5t37.5 -57t15.5 -65.5q0 -70 -53.5 -110t-145.5 -35z" />
    <glyph glyph-name="agrave" unicode="&#xe0;" horiz-adv-x="653" 
d="M345 570h-33l-88 123h41zM535 500h35v-500h-35v134q-30 -66 -91 -105.5t-137 -39.5q-108 0 -184 75.5t-76 185.5t76 185.5t184 75.5q76 0 137 -39.5t91 -105.5v134zM308 23q95 0 161 65.5t66 161.5t-66 161.5t-161 65.5t-160.5 -65.5t-65.5 -161.5t65.5 -161.5
t160.5 -65.5z" />
    <glyph glyph-name="aacute" unicode="&#xe1;" horiz-adv-x="653" 
d="M396 693l-88 -123h-33l80 123h41zM535 500h35v-500h-35v134q-30 -66 -91 -105.5t-137 -39.5q-108 0 -184 75.5t-76 185.5t76 185.5t184 75.5q76 0 137 -39.5t91 -105.5v134zM308 23q95 0 161 65.5t66 161.5t-66 161.5t-161 65.5t-160.5 -65.5t-65.5 -161.5t65.5 -161.5
t160.5 -65.5z" />
    <glyph glyph-name="acircumflex" unicode="&#xe2;" horiz-adv-x="653" 
d="M306 672l-90 -102h-40l110 123h41l110 -123h-40zM535 500h35v-500h-35v134q-30 -66 -91 -105.5t-137 -39.5q-108 0 -184 75.5t-76 185.5t76 185.5t184 75.5q76 0 137 -39.5t91 -105.5v134zM308 23q95 0 161 65.5t66 161.5t-66 161.5t-161 65.5t-160.5 -65.5t-65.5 -161.5
t65.5 -161.5t160.5 -65.5z" />
    <glyph glyph-name="atilde" unicode="&#xe3;" horiz-adv-x="653" 
d="M305 618q-44 43 -71 34.5t-27 -65.5h-31q0 75 41.5 93.5t94.5 -32.5q44 -43 70.5 -34t26.5 65h31q0 -75 -41.5 -93t-93.5 32zM535 500h35v-500h-35v134q-30 -66 -91 -105.5t-137 -39.5q-108 0 -184 75.5t-76 185.5t76 185.5t184 75.5q76 0 137 -39.5t91 -105.5v134z
M308 23q95 0 161 65.5t66 161.5t-66 161.5t-161 65.5t-160.5 -65.5t-65.5 -161.5t65.5 -161.5t160.5 -65.5z" />
    <glyph glyph-name="adieresis" unicode="&#xe4;" horiz-adv-x="653" 
d="M223 578q-11 0 -19.5 8.5t-8.5 20.5q0 11 8.5 19.5t19.5 8.5q12 0 20.5 -8.5t8.5 -19.5q0 -12 -8.5 -20.5t-20.5 -8.5zM393 578q-11 0 -19.5 8.5t-8.5 20.5q0 11 8.5 19.5t19.5 8.5q12 0 20.5 -8.5t8.5 -19.5q0 -12 -8.5 -20.5t-20.5 -8.5zM535 500h35v-500h-35v134
q-30 -66 -91 -105.5t-137 -39.5q-108 0 -184 75.5t-76 185.5t76 185.5t184 75.5q76 0 137 -39.5t91 -105.5v134zM308 23q95 0 161 65.5t66 161.5t-66 161.5t-161 65.5t-160.5 -65.5t-65.5 -161.5t65.5 -161.5t160.5 -65.5z" />
    <glyph glyph-name="aring" unicode="&#xe5;" horiz-adv-x="653" 
d="M308 557q-44 0 -71.5 26.5t-27.5 66.5t27.5 66.5t71.5 26.5t71 -26.5t27 -66.5t-27 -66.5t-71 -26.5zM308 716q-31 0 -50 -18.5t-19 -47.5t19 -47.5t50 -18.5t49.5 18t18.5 48t-18.5 48t-49.5 18zM535 500h35v-500h-35v134q-30 -66 -91 -105.5t-137 -39.5
q-108 0 -184 75.5t-76 185.5t76 185.5t184 75.5q76 0 137 -39.5t91 -105.5v134zM308 23q95 0 161 65.5t66 161.5t-66 161.5t-161 65.5t-160.5 -65.5t-65.5 -161.5t65.5 -161.5t160.5 -65.5z" />
    <glyph glyph-name="ae" unicode="&#xe6;" horiz-adv-x="1080" 
d="M792 511q111 0 177 -77.5t66 -185.5q0 -12 -1 -17h-463q6 -94 67.5 -151t155.5 -57q65 0 114.5 26t73.5 71l31 -18q-31 -52 -88 -82.5t-128 -30.5q-80 0 -139.5 38t-88.5 105v-132h-34v134q-30 -66 -91 -105.5t-137 -39.5q-108 0 -184 75.5t-76 185.5t76 185.5t184 75.5
q76 0 137 -39.5t91 -105.5v134h34v-132q28 66 86.5 104.5t136.5 38.5zM308 23q95 0 161 65.5t66 161.5t-66 161.5t-161 65.5t-160.5 -65.5t-65.5 -161.5t65.5 -161.5t160.5 -65.5zM791 477q-94 0 -155 -59t-66 -154h430q-7 98 -64.5 155.5t-144.5 57.5z" />
    <glyph glyph-name="ccedilla" unicode="&#xe7;" 
d="M528 114q-26 -53 -79.5 -86t-120.5 -38v-58q37 0 63.5 -18t26.5 -49q0 -40 -45 -60.5t-140 -11.5v29q153 -16 153 43q0 47 -89 43v81q-107 4 -178.5 79t-71.5 182q0 111 75 186t186 75q73 0 132 -34t87 -91l-29 -17q-24 49 -75 78.5t-115 29.5q-96 0 -161 -65.5
t-65 -161.5t65 -161.5t161 -65.5q64 0 114.5 29.5t76.5 78.5z" />
    <glyph glyph-name="egrave" unicode="&#xe8;" horiz-adv-x="594" 
d="M333 570h-33l-88 123h41zM302 511q110 0 178.5 -78t68.5 -185q0 -12 -1 -17h-465q6 -93 69 -150.5t155 -57.5q63 0 111.5 26.5t72.5 70.5l31 -18q-30 -52 -86.5 -82.5t-128.5 -30.5q-114 0 -187 73.5t-73 187.5q0 111 72 186t183 75zM302 477q-92 0 -153.5 -59.5
t-66.5 -153.5h431q-7 97 -66.5 155t-144.5 58z" />
    <glyph glyph-name="eacute" unicode="&#xe9;" horiz-adv-x="594" 
d="M384 693l-88 -123h-33l80 123h41zM302 511q110 0 178.5 -78t68.5 -185q0 -12 -1 -17h-465q6 -93 69 -150.5t155 -57.5q63 0 111.5 26.5t72.5 70.5l31 -18q-30 -52 -86.5 -82.5t-128.5 -30.5q-114 0 -187 73.5t-73 187.5q0 111 72 186t183 75zM302 477q-92 0 -153.5 -59.5
t-66.5 -153.5h431q-7 97 -66.5 155t-144.5 58z" />
    <glyph glyph-name="ecircumflex" unicode="&#xea;" horiz-adv-x="594" 
d="M294 672l-90 -102h-40l110 123h41l110 -123h-40zM302 511q110 0 178.5 -78t68.5 -185q0 -12 -1 -17h-465q6 -93 69 -150.5t155 -57.5q63 0 111.5 26.5t72.5 70.5l31 -18q-30 -52 -86.5 -82.5t-128.5 -30.5q-114 0 -187 73.5t-73 187.5q0 111 72 186t183 75zM302 477
q-92 0 -153.5 -59.5t-66.5 -153.5h431q-7 97 -66.5 155t-144.5 58z" />
    <glyph glyph-name="edieresis" unicode="&#xeb;" horiz-adv-x="594" 
d="M211 578q-11 0 -19.5 8.5t-8.5 20.5q0 11 8.5 19.5t19.5 8.5q12 0 20.5 -8.5t8.5 -19.5q0 -12 -8.5 -20.5t-20.5 -8.5zM381 578q-11 0 -19.5 8.5t-8.5 20.5q0 11 8.5 19.5t19.5 8.5q12 0 20.5 -8.5t8.5 -19.5q0 -12 -8.5 -20.5t-20.5 -8.5zM302 511q110 0 178.5 -78
t68.5 -185q0 -12 -1 -17h-465q6 -93 69 -150.5t155 -57.5q63 0 111.5 26.5t72.5 70.5l31 -18q-30 -52 -86.5 -82.5t-128.5 -30.5q-114 0 -187 73.5t-73 187.5q0 111 72 186t183 75zM302 477q-92 0 -153.5 -59.5t-66.5 -153.5h431q-7 97 -66.5 155t-144.5 58z" />
    <glyph glyph-name="igrave" unicode="&#xec;" horiz-adv-x="202" 
d="M122 570l-60 123h-41l68 -123h33zM119 0h-36v500h36v-500z" />
    <glyph glyph-name="iacute" unicode="&#xed;" horiz-adv-x="202" 
d="M78 570h33l67 123h-40zM83 0v500h36v-500h-36z" />
    <glyph glyph-name="icircumflex" unicode="&#xee;" horiz-adv-x="202" 
d="M121 693l84 -123h-40l-64 95l-64 -95h-40l84 123h40zM83 0v500h36v-500h-36z" />
    <glyph glyph-name="idieresis" unicode="&#xef;" horiz-adv-x="202" 
d="M38 578q-12 0 -20.5 8.5t-8.5 20.5q0 11 8.5 19.5t20.5 8.5q11 0 19.5 -8.5t8.5 -19.5q0 -12 -8.5 -20.5t-19.5 -8.5zM164 578q-11 0 -19.5 8.5t-8.5 20.5q0 11 8.5 19.5t19.5 8.5q12 0 20.5 -8.5t8.5 -19.5q0 -12 -8.5 -20.5t-20.5 -8.5zM83 0v500h36v-500h-36z" />
    <glyph glyph-name="eth" unicode="&#xf0;" horiz-adv-x="589" 
d="M496 370q46 -62 46 -140q0 -107 -73 -174t-173 -67q-102 0 -175.5 67t-73.5 174q0 102 72 167.5t169 65.5q70 0 120 -30l-117 158l-126 -78v34l109 67l-64 86h40l51 -69l111 68v-34l-93 -57zM296 23q89 0 150 58.5t61 148.5q0 72 -37 120q-60 81 -178 81
q-89 0 -149.5 -57.5t-60.5 -143.5q0 -90 61.5 -148.5t152.5 -58.5z" />
    <glyph glyph-name="ntilde" unicode="&#xf1;" horiz-adv-x="569" 
d="M290 618q-44 43 -71 34.5t-27 -65.5h-31q0 75 41.5 93.5t94.5 -32.5q43 -43 70 -34t27 65h31q0 -75 -41.5 -93t-93.5 32zM308 511q87 0 139.5 -54t52.5 -143v-314h-35v314q0 73 -43 118t-117 45q-82 0 -134 -56t-52 -155v-266h-36v500h36v-111q26 61 75.5 91.5
t113.5 30.5z" />
    <glyph glyph-name="ograve" unicode="&#xf2;" horiz-adv-x="617" 
d="M340 570l-80 123h-41l88 -123h33zM308 -11q-109 0 -185 75.5t-76 185.5t76 185.5t185 75.5q110 0 186 -75.5t76 -185.5t-76 -185.5t-186 -75.5zM308 23q95 0 161 65.5t66 161.5t-66 161.5t-161 65.5t-160.5 -65.5t-65.5 -161.5t65.5 -161.5t160.5 -65.5z" />
    <glyph glyph-name="oacute" unicode="&#xf3;" horiz-adv-x="617" 
d="M270 570h33l88 123h-41zM308 -11q-109 0 -185 75.5t-76 185.5t76 185.5t185 75.5q110 0 186 -75.5t76 -185.5t-76 -185.5t-186 -75.5zM308 23q95 0 161 65.5t66 161.5t-66 161.5t-161 65.5t-160.5 -65.5t-65.5 -161.5t65.5 -161.5t160.5 -65.5z" />
    <glyph glyph-name="ocircumflex" unicode="&#xf4;" horiz-adv-x="617" 
d="M301 672l-90 -102h-40l110 123h41l110 -123h-40zM308 511q110 0 186 -75.5t76 -185.5t-76 -185.5t-186 -75.5q-109 0 -185 75.5t-76 185.5t76 185.5t185 75.5zM308 23q95 0 161 65.5t66 161.5t-66 161.5t-161 65.5t-160.5 -65.5t-65.5 -161.5t65.5 -161.5t160.5 -65.5z
" />
    <glyph glyph-name="otilde" unicode="&#xf5;" horiz-adv-x="617" 
d="M171 587q0 75 41.5 93.5t94.5 -32.5q43 -43 70 -34t27 65h31q0 -75 -41.5 -93t-93.5 32q-44 43 -71 34.5t-27 -65.5h-31zM308 -11q-109 0 -185 75.5t-76 185.5t76 185.5t185 75.5q110 0 186 -75.5t76 -185.5t-76 -185.5t-186 -75.5zM308 23q95 0 161 65.5t66 161.5
t-66 161.5t-161 65.5t-160.5 -65.5t-65.5 -161.5t65.5 -161.5t160.5 -65.5z" />
    <glyph glyph-name="odieresis" unicode="&#xf6;" horiz-adv-x="617" 
d="M218 578q-11 0 -19.5 8.5t-8.5 20.5q0 11 8.5 19.5t19.5 8.5q12 0 20.5 -8.5t8.5 -19.5q0 -12 -8.5 -20.5t-20.5 -8.5zM388 578q-11 0 -19.5 8.5t-8.5 20.5q0 11 8.5 19.5t19.5 8.5q12 0 20.5 -8.5t8.5 -19.5q0 -12 -8.5 -20.5t-20.5 -8.5zM308 -11q-109 0 -185 75.5
t-76 185.5t76 185.5t185 75.5q110 0 186 -75.5t76 -185.5t-76 -185.5t-186 -75.5zM308 23q95 0 161 65.5t66 161.5t-66 161.5t-161 65.5t-160.5 -65.5t-65.5 -161.5t65.5 -161.5t160.5 -65.5z" />
    <glyph glyph-name="divide" unicode="&#xf7;" horiz-adv-x="580" 
d="M290 502q-15 0 -25 10t-10 25t10 25t25 10t25 -10t10 -25t-10 -25t-25 -10zM67 333v34h446v-34h-446zM290 128q-15 0 -25 10t-10 25t10 25t25 10t25 -10t10 -25t-10 -25t-25 -10z" />
    <glyph glyph-name="oslash" unicode="&#xf8;" horiz-adv-x="617" 
d="M495 435q75 -77 75 -185q0 -110 -76 -185.5t-186 -75.5q-93 0 -166 58l-45 -49l-24 14l49 54q-75 73 -75 184q0 110 76 185.5t185 75.5q94 0 167 -58l45 49l23 -14zM82 250q0 -94 63 -159l307 336q-63 50 -144 50q-95 0 -160.5 -65.5t-65.5 -161.5zM308 23q95 0 161 65.5
t66 161.5q0 95 -64 159l-306 -336q61 -50 143 -50z" />
    <glyph glyph-name="ugrave" unicode="&#xf9;" horiz-adv-x="569" 
d="M314 570h-33l-88 123h41zM450 500h36v-500h-36v111q-26 -61 -75.5 -91.5t-113.5 -30.5q-87 0 -139.5 54t-52.5 143v314h35v-314q0 -73 43 -118t117 -45q82 0 134 56t52 155v266z" />
    <glyph glyph-name="uacute" unicode="&#xfa;" horiz-adv-x="569" 
d="M365 693l-88 -123h-33l80 123h41zM450 500h36v-500h-36v111q-26 -61 -75.5 -91.5t-113.5 -30.5q-87 0 -139.5 54t-52.5 143v314h35v-314q0 -73 43 -118t117 -45q82 0 134 56t52 155v266z" />
    <glyph glyph-name="ucircumflex" unicode="&#xfb;" horiz-adv-x="569" 
d="M275 672l-90 -102h-40l110 123h41l110 -123h-40zM450 500h36v-500h-36v111q-26 -61 -75.5 -91.5t-113.5 -30.5q-87 0 -139.5 54t-52.5 143v314h35v-314q0 -73 43 -118t117 -45q82 0 134 56t52 155v266z" />
    <glyph glyph-name="udieresis" unicode="&#xfc;" horiz-adv-x="569" 
d="M192 578q-11 0 -19.5 8.5t-8.5 20.5q0 11 8.5 19.5t19.5 8.5q12 0 20.5 -8.5t8.5 -19.5q0 -12 -8.5 -20.5t-20.5 -8.5zM362 578q-11 0 -19.5 8.5t-8.5 20.5q0 11 8.5 19.5t19.5 8.5q12 0 20.5 -8.5t8.5 -19.5q0 -12 -8.5 -20.5t-20.5 -8.5zM450 500h36v-500h-36v111
q-26 -61 -75.5 -91.5t-113.5 -30.5q-87 0 -139.5 54t-52.5 143v314h35v-314q0 -73 43 -118t117 -45q82 0 134 56t52 155v266z" />
    <glyph glyph-name="yacute" unicode="&#xfd;" horiz-adv-x="510" 
d="M351 693l-88 -123h-33l80 123h41zM457 500h36l-217 -546q-30 -74 -82 -116.5t-113 -37.5v33q50 -5 92.5 30t68.5 99l10 22l-235 516h36l216 -473z" />
    <glyph glyph-name="thorn" unicode="&#xfe;" horiz-adv-x="653" 
d="M347 511q108 0 184 -75.5t76 -185.5t-76 -185.5t-184 -75.5q-77 0 -137 39t-91 105v-333h-36v900h36v-333q31 66 91 105t137 39zM345 23q95 0 160.5 65.5t65.5 161.5t-65.5 161.5t-160.5 65.5t-160.5 -65.5t-65.5 -161.5t65.5 -161.5t160.5 -65.5z" />
    <glyph glyph-name="ydieresis" unicode="&#xff;" horiz-adv-x="510" 
d="M178 578q-11 0 -19.5 8.5t-8.5 20.5q0 11 8.5 19.5t19.5 8.5q12 0 20.5 -8.5t8.5 -19.5q0 -12 -8.5 -20.5t-20.5 -8.5zM348 578q-11 0 -19.5 8.5t-8.5 20.5q0 11 8.5 19.5t19.5 8.5q12 0 20.5 -8.5t8.5 -19.5q0 -12 -8.5 -20.5t-20.5 -8.5zM457 500h36l-217 -546
q-30 -74 -82 -116.5t-113 -37.5v33q50 -5 92.5 30t68.5 99l10 22l-235 516h36l216 -473z" />
    <glyph glyph-name="Amacron" unicode="&#x100;" horiz-adv-x="629" 
d="M438 824v-30h-247v30h247zM570 0l-72 185h-367l-72 -185h-39l274 700h40l275 -700h-39zM144 219h341l-171 438z" />
    <glyph glyph-name="amacron" unicode="&#x101;" horiz-adv-x="653" 
d="M432 624v-30h-247v30h247zM535 500h35v-500h-35v134q-30 -66 -91 -105.5t-137 -39.5q-108 0 -184 75.5t-76 185.5t76 185.5t184 75.5q76 0 137 -39.5t91 -105.5v134zM308 23q95 0 161 65.5t66 161.5t-66 161.5t-161 65.5t-160.5 -65.5t-65.5 -161.5t65.5 -161.5
t160.5 -65.5z" />
    <glyph glyph-name="Abreve" unicode="&#x102;" horiz-adv-x="629" 
d="M314 769q-57 0 -92 30.5t-35 82.5h34q0 -39 25 -61t68 -22t68 22t25 61h34q0 -52 -34.5 -82.5t-92.5 -30.5zM570 0l-72 185h-367l-72 -185h-39l274 700h40l275 -700h-39zM144 219h341l-171 438z" />
    <glyph glyph-name="abreve" unicode="&#x103;" horiz-adv-x="653" 
d="M308 569q-57 0 -92 30.5t-35 82.5h34q0 -39 25 -61t68 -22t68 22t25 61h34q0 -52 -34.5 -82.5t-92.5 -30.5zM535 500h35v-500h-35v134q-30 -66 -91 -105.5t-137 -39.5q-108 0 -184 75.5t-76 185.5t76 185.5t184 75.5q76 0 137 -39.5t91 -105.5v134zM308 23q95 0 161 65.5
t66 161.5t-66 161.5t-161 65.5t-160.5 -65.5t-65.5 -161.5t65.5 -161.5t160.5 -65.5z" />
    <glyph glyph-name="Aogonek" unicode="&#x104;" horiz-adv-x="629" 
d="M519 -137q0 -21 12.5 -32.5t33.5 -11.5q27 0 44 8v-29q-19 -9 -50 -9q-34 0 -54 19t-20 51q0 65 84 143l-71 183h-367l-72 -185h-39l274 700h40l275 -700q-90 -77 -90 -137zM144 219h341l-171 438z" />
    <glyph glyph-name="aogonek" unicode="&#x105;" horiz-adv-x="653" 
d="M570 0q-90 -77 -90 -137q0 -21 12.5 -32.5t33.5 -11.5q25 0 44 8v-29q-21 -9 -50 -9q-34 0 -54 19t-20 51q0 67 89 149v126q-30 -66 -91 -105.5t-137 -39.5q-108 0 -184 75.5t-76 185.5t76 185.5t184 75.5q76 0 137 -39.5t91 -105.5v134h35v-500zM308 23q95 0 161 65.5
t66 161.5t-66 161.5t-161 65.5t-160.5 -65.5t-65.5 -161.5t65.5 -161.5t160.5 -65.5z" />
    <glyph glyph-name="Cacute" unicode="&#x106;" horiz-adv-x="758" 
d="M383 770h33l88 123h-41zM416 -11q-156 0 -259.5 105t-103.5 256t103.5 256t259.5 105q93 0 173 -45t124 -120l-32 -19q-39 68 -110 108.5t-155 40.5q-141 0 -233.5 -94.5t-92.5 -231.5t92.5 -231.5t233.5 -94.5q86 0 158 41.5t109 111.5l33 -18q-43 -77 -123.5 -123.5
t-176.5 -46.5z" />
    <glyph glyph-name="cacute" unicode="&#x107;" 
d="M272 570h33l88 123h-41zM308 -11q-111 0 -186 75t-75 186t75 186t186 75q73 0 132 -34t87 -91l-29 -17q-24 49 -75 78.5t-115 29.5q-96 0 -161 -65.5t-65 -161.5t65 -161.5t161 -65.5q64 0 114.5 29.5t76.5 78.5l29 -17q-29 -57 -88 -91t-132 -34z" />
    <glyph glyph-name="Cdotaccent" unicode="&#x10a;" horiz-adv-x="758" 
d="M416 777q-16 0 -27 11t-11 27t11 27t27 11q17 0 28 -11t11 -27t-11 -27t-28 -11zM416 -11q-156 0 -259.5 105t-103.5 256t103.5 256t259.5 105q93 0 173 -45t124 -120l-32 -19q-39 68 -110 108.5t-155 40.5q-141 0 -233.5 -94.5t-92.5 -231.5t92.5 -231.5t233.5 -94.5
q86 0 158 41.5t109 111.5l33 -18q-43 -77 -123.5 -123.5t-176.5 -46.5z" />
    <glyph glyph-name="cdotaccent" unicode="&#x10b;" 
d="M305 577q-16 0 -27 11t-11 27t11 27t27 11q17 0 28 -11t11 -27t-11 -27t-28 -11zM308 -11q-111 0 -186 75t-75 186t75 186t186 75q73 0 132 -34t87 -91l-29 -17q-24 49 -75 78.5t-115 29.5q-96 0 -161 -65.5t-65 -161.5t65 -161.5t161 -65.5q64 0 114.5 29.5t76.5 78.5
l29 -17q-29 -57 -88 -91t-132 -34z" />
    <glyph glyph-name="Ccaron" unicode="&#x10c;" horiz-adv-x="758" 
d="M395 770l-110 123h39l91 -102l91 102h39l-110 -123h-40zM683 177l33 -18q-43 -77 -123.5 -123.5t-176.5 -46.5q-156 0 -259.5 105t-103.5 256t103.5 256t259.5 105q93 0 173 -45t124 -120l-32 -19q-39 68 -110 108.5t-155 40.5q-141 0 -233.5 -94.5t-92.5 -231.5
t92.5 -231.5t233.5 -94.5q86 0 158 41.5t109 111.5z" />
    <glyph glyph-name="ccaron" unicode="&#x10d;" 
d="M284 570l-110 123h39l91 -102l91 102h39l-110 -123h-40zM499 131l29 -17q-29 -57 -88 -91t-132 -34q-111 0 -186 75t-75 186t75 186t186 75q73 0 132 -34t87 -91l-29 -17q-24 49 -75 78.5t-115 29.5q-96 0 -161 -65.5t-65 -161.5t65 -161.5t161 -65.5q64 0 114.5 29.5
t76.5 78.5z" />
    <glyph glyph-name="Dcaron" unicode="&#x10e;" horiz-adv-x="733" 
d="M329 770l-110 123h39l91 -102l91 102h39l-110 -123h-40zM350 700q143 0 236.5 -101.5t93.5 -248.5t-93.5 -248.5t-236.5 -101.5h-257v700h257zM350 34q128 0 211 91.5t83 224.5t-83 224.5t-211 91.5h-220v-632h220z" />
    <glyph glyph-name="dcaron" unicode="&#x10f;" horiz-adv-x="691" 
d="M534 367v333h36v-700h-36v133q-31 -66 -91 -105t-137 -39q-108 0 -184 75.5t-76 185.5t76 185.5t184 75.5q77 0 137 -39t91 -105zM659 700h36l-20 -170h-26zM308 23q95 0 160.5 65.5t65.5 161.5t-65.5 161.5t-160.5 65.5t-160.5 -65.5t-65.5 -161.5t65.5 -161.5
t160.5 -65.5z" />
    <glyph glyph-name="Dcroat" unicode="&#x110;" horiz-adv-x="753" 
d="M370 700q143 0 236.5 -101.5t93.5 -248.5t-93.5 -248.5t-236.5 -101.5h-257v333h-63v34h63v333h257zM370 34q128 0 211 91.5t83 224.5t-83 224.5t-211 91.5h-220v-299h260v-34h-260v-299h220z" />
    <glyph glyph-name="dcroat" unicode="&#x111;" horiz-adv-x="659" 
d="M636 618v-29h-66v-589h-35v135q-30 -66 -90.5 -106t-137.5 -40q-108 0 -184 75.5t-76 185.5t76 185.5t184 75.5q77 0 137.5 -40t90.5 -106v224h-219v29h219v82h35v-82h66zM308 23q95 0 161 65.5t66 161.5t-66 161.5t-161 65.5t-160.5 -65.5t-65.5 -161.5t65.5 -161.5
t160.5 -65.5z" />
    <glyph glyph-name="Emacron" unicode="&#x112;" horiz-adv-x="537" 
d="M413 824v-30h-247v30h247zM130 34h360v-34h-397v700h392v-34h-355v-296h330v-34h-330v-302z" />
    <glyph glyph-name="emacron" unicode="&#x113;" horiz-adv-x="594" 
d="M420 624v-30h-247v30h247zM302 511q110 0 178.5 -78t68.5 -185q0 -12 -1 -17h-465q6 -93 69 -150.5t155 -57.5q63 0 111.5 26.5t72.5 70.5l31 -18q-30 -52 -86.5 -82.5t-128.5 -30.5q-114 0 -187 73.5t-73 187.5q0 111 72 186t183 75zM302 477q-92 0 -153.5 -59.5
t-66.5 -153.5h431q-7 97 -66.5 155t-144.5 58z" />
    <glyph glyph-name="Edotaccent" unicode="&#x116;" horiz-adv-x="537" 
d="M289 777q-16 0 -27 11t-11 27t11 27t27 11q17 0 28 -11t11 -27t-11 -27t-28 -11zM130 34h360v-34h-397v700h392v-34h-355v-296h330v-34h-330v-302z" />
    <glyph glyph-name="edotaccent" unicode="&#x117;" horiz-adv-x="594" 
d="M296 577q-16 0 -27 11t-11 27t11 27t27 11q17 0 28 -11t11 -27t-11 -27t-28 -11zM302 511q110 0 178.5 -78t68.5 -185q0 -12 -1 -17h-465q6 -93 69 -150.5t155 -57.5q63 0 111.5 26.5t72.5 70.5l31 -18q-30 -52 -86.5 -82.5t-128.5 -30.5q-114 0 -187 73.5t-73 187.5
q0 111 72 186t183 75zM302 477q-92 0 -153.5 -59.5t-66.5 -153.5h431q-7 97 -66.5 155t-144.5 58z" />
    <glyph glyph-name="Eogonek" unicode="&#x118;" horiz-adv-x="538" 
d="M448 -181q25 0 44 8v-29q-21 -9 -50 -9q-35 0 -55 19t-20 51q0 66 85 141h-359v700h392v-34h-355v-296h330v-34h-330v-302h360v-34h1q-90 -77 -90 -137q0 -21 13 -32.5t34 -11.5z" />
    <glyph glyph-name="eogonek" unicode="&#x119;" horiz-adv-x="594" 
d="M302 511q110 0 178.5 -78t68.5 -185q0 -12 -1 -17h-465q6 -93 69 -150.5t155 -57.5q63 0 111.5 26.5t72.5 70.5l31 -18q-14 -24 -36 -46q-75 -83 -103 -123t-28 -70q0 -21 13 -32.5t34 -11.5q25 0 44 8v-29q-21 -9 -49 -9q-36 0 -56 19t-20 51q0 59 85 147
q-46 -17 -99 -17q-114 0 -187 73.5t-73 187.5q0 111 72 186t183 75zM302 477q-92 0 -153.5 -59.5t-66.5 -153.5h431q-7 97 -66.5 155t-144.5 58z" />
    <glyph glyph-name="Ecaron" unicode="&#x11a;" horiz-adv-x="537" 
d="M268 770l-110 123h39l91 -102l91 102h39l-110 -123h-40zM130 34h360v-34h-397v700h392v-34h-355v-296h330v-34h-330v-302z" />
    <glyph glyph-name="ecaron" unicode="&#x11b;" horiz-adv-x="594" 
d="M275 570l-110 123h39l91 -102l91 102h39l-110 -123h-40zM302 511q110 0 178.5 -78t68.5 -185q0 -12 -1 -17h-465q6 -93 69 -150.5t155 -57.5q63 0 111.5 26.5t72.5 70.5l31 -18q-30 -52 -86.5 -82.5t-128.5 -30.5q-114 0 -187 73.5t-73 187.5q0 111 72 186t183 75z
M302 477q-92 0 -153.5 -59.5t-66.5 -153.5h431q-7 97 -66.5 155t-144.5 58z" />
    <glyph glyph-name="Gbreve" unicode="&#x11e;" horiz-adv-x="810" 
d="M411 769q-57 0 -92 30.5t-35 82.5h34q0 -39 25 -61t68 -22t68 22t25 61h34q0 -52 -34.5 -82.5t-92.5 -30.5zM756 320v-19q0 -131 -92 -221.5t-242 -90.5q-160 0 -264.5 104.5t-104.5 256.5q0 151 103.5 256t259.5 105q95 0 175 -45.5t123 -122.5l-32 -18
q-38 69 -109.5 110t-156.5 41q-141 0 -233.5 -94.5t-92.5 -231.5t93.5 -231.5t238.5 -94.5q130 0 211 75t87 187h-314v34h350z" />
    <glyph glyph-name="gbreve" unicode="&#x11f;" horiz-adv-x="660" 
d="M321 569q-57 0 -92 30.5t-35 82.5h34q0 -39 25 -61t68 -22t68 22t25 61h34q0 -52 -34.5 -82.5t-92.5 -30.5zM541 500h36v-473q0 -110 -68 -174t-180 -64q-86 0 -147 33t-87 87l30 17q21 -45 72.5 -74t131.5 -29q100 0 156 55t56 149v106q-31 -66 -91 -105t-137 -39
q-108 0 -184 75.5t-76 185.5t76 185.5t184 75.5q77 0 137 -39t91 -105v133zM315 23q95 0 160.5 65.5t65.5 161.5t-65.5 161.5t-160.5 65.5t-160.5 -65.5t-65.5 -161.5t65.5 -161.5t160.5 -65.5z" />
    <glyph glyph-name="Gdotaccent" unicode="&#x120;" horiz-adv-x="810" 
d="M411 777q-16 0 -27 11t-11 27t11 27t27 11q17 0 28 -11t11 -27t-11 -27t-28 -11zM756 320v-19q0 -131 -92 -221.5t-242 -90.5q-160 0 -264.5 104.5t-104.5 256.5q0 151 103.5 256t259.5 105q95 0 175 -45.5t123 -122.5l-32 -18q-38 69 -109.5 110t-156.5 41
q-141 0 -233.5 -94.5t-92.5 -231.5t93.5 -231.5t238.5 -94.5q130 0 211 75t87 187h-314v34h350z" />
    <glyph glyph-name="gdotaccent" unicode="&#x121;" horiz-adv-x="660" 
d="M321 577q-16 0 -27 11t-11 27t11 27t27 11q17 0 28 -11t11 -27t-11 -27t-28 -11zM541 500h36v-473q0 -110 -68 -174t-180 -64q-86 0 -147 33t-87 87l30 17q21 -45 72.5 -74t131.5 -29q100 0 156 55t56 149v106q-31 -66 -91 -105t-137 -39q-108 0 -184 75.5t-76 185.5
t76 185.5t184 75.5q77 0 137 -39t91 -105v133zM315 23q95 0 160.5 65.5t65.5 161.5t-65.5 161.5t-160.5 65.5t-160.5 -65.5t-65.5 -161.5t65.5 -161.5t160.5 -65.5z" />
    <glyph glyph-name="Gcommaaccent" unicode="&#x122;" horiz-adv-x="810" 
d="M756 320v-19q0 -131 -92 -221.5t-242 -90.5q-160 0 -264.5 104.5t-104.5 256.5q0 151 103.5 256t259.5 105q95 0 175 -45.5t123 -122.5l-32 -18q-38 69 -109.5 110t-156.5 41q-141 0 -233.5 -94.5t-92.5 -231.5t93.5 -231.5t238.5 -94.5q130 0 211 75t87 187h-314v34h350
zM403 -240l10 170h35l-19 -170h-26z" />
    <glyph glyph-name="gcommaaccent" unicode="&#x123;" horiz-adv-x="660" 
d="M340 760l-10 -170h-35l19 170h26zM541 500h36v-473q0 -110 -68 -174t-180 -64q-86 0 -147 33t-87 87l30 17q21 -45 72.5 -74t131.5 -29q100 0 156 55t56 149v106q-31 -66 -91 -105t-137 -39q-108 0 -184 75.5t-76 185.5t76 185.5t184 75.5q77 0 137 -39t91 -105v133z
M315 23q95 0 160.5 65.5t65.5 161.5t-65.5 161.5t-160.5 65.5t-160.5 -65.5t-65.5 -161.5t65.5 -161.5t160.5 -65.5z" />
    <glyph glyph-name="Hbar" unicode="&#x126;" horiz-adv-x="750" 
d="M697 555v-30h-69v-525h-36v343h-434v-343h-36v525h-69v30h69v145h36v-145h434v145h36v-145h69zM592 377v148h-434v-148h434z" />
    <glyph glyph-name="hbar" unicode="&#x127;" horiz-adv-x="586" 
d="M325 511q87 0 139.5 -54t52.5 -143v-314h-36v314q0 73 -42.5 118t-116.5 45q-83 0 -135 -56t-52 -155v-266h-35v589h-77v29h77v82h35v-82h168v-29h-168v-202q26 61 75.5 92.5t114.5 31.5z" />
    <glyph glyph-name="Imacron" unicode="&#x12a;" horiz-adv-x="223" 
d="M-11 794v30h247v-30h-247zM93 700h37v-700h-37v700z" />
    <glyph glyph-name="imacron" unicode="&#x12b;" horiz-adv-x="202" 
d="M14 594v30h174v-30h-174zM83 0v500h36v-500h-36z" />
    <glyph glyph-name="Iogonek" unicode="&#x12e;" horiz-adv-x="223" 
d="M128 -181q25 0 44 8v-29q-22 -9 -50 -9q-35 0 -55 19t-20 51q0 54 46 141v700h37v-700q-3 -5 -9.5 -18.5t-9.5 -18.5t-8.5 -16.5t-7.5 -17.5t-5.5 -16t-5.5 -17t-3 -16t-1 -17q0 -21 13 -32.5t35 -11.5z" />
    <glyph glyph-name="iogonek" unicode="&#x12f;" horiz-adv-x="202" 
d="M101 636q-13 0 -22 9.5t-9 21.5q0 13 9 22.5t22 9.5t22 -9.5t9 -22.5q0 -12 -9 -21.5t-22 -9.5zM118 -181q25 0 44 8v-29q-22 -9 -50 -9q-34 0 -54.5 21.5t-20.5 54.5q0 55 46 140v495h36v-500q-26 -47 -37.5 -74.5t-11.5 -56.5q0 -21 13.5 -35.5t34.5 -14.5z" />
    <glyph glyph-name="Idotaccent" unicode="&#x130;" horiz-adv-x="223" 
d="M112 777q-16 0 -27 11t-11 27t11 27t27 11q17 0 28 -11t11 -27t-11 -27t-28 -11zM93 700h37v-700h-37v700z" />
    <glyph glyph-name="dotlessi" unicode="&#x131;" horiz-adv-x="202" 
d="M83 0v500h36v-500h-36z" />
    <glyph glyph-name="Kcommaaccent" unicode="&#x136;" horiz-adv-x="563" 
d="M170 360l383 -360h-48l-375 350v-350h-37v700h37v-330l365 330h48zM288 -240l10 170h35l-19 -170h-26z" />
    <glyph glyph-name="kcommaaccent" unicode="&#x137;" horiz-adv-x="472" 
d="M156 260l289 -260h-48l-278 249v-249h-36v700h36v-430l268 230h48zM232 -240l10 170h35l-19 -170h-26z" />
    <glyph glyph-name="Lacute" unicode="&#x139;" horiz-adv-x="497" 
d="M213 893l-88 -123h-33l80 123h41zM130 34h340v-34h-377v700h37v-666z" />
    <glyph glyph-name="lacute" unicode="&#x13a;" horiz-adv-x="202" 
d="M84 770h33l88 123h-41zM83 0v730h36v-730h-36z" />
    <glyph glyph-name="Lcommaaccent" unicode="&#x13b;" horiz-adv-x="497" 
d="M130 34h340v-34h-377v700h37v-666zM259 -240l10 170h35l-19 -170h-26z" />
    <glyph glyph-name="lcommaaccent" unicode="&#x13c;" horiz-adv-x="202" 
d="M83 0v730h36v-730h-36zM100 -240l19 170h-35l-10 -170h26z" />
    <glyph glyph-name="Lcaron" unicode="&#x13d;" horiz-adv-x="497" 
d="M130 34h340v-34h-377v700h37v-666zM315 700l-20 -170h-26l10 170h36z" />
    <glyph glyph-name="lcaron" unicode="&#x13e;" horiz-adv-x="241" 
d="M83 0v730h36v-730h-36zM225 560l20 170h-36l-10 -170h26z" />
    <glyph glyph-name="Lslash" unicode="&#x141;" horiz-adv-x="510" 
d="M143 34h340v-34h-377v255l-59 -35v34l59 35v411h37v-389l197 116v-34l-197 -116v-243z" />
    <glyph glyph-name="lslash" unicode="&#x142;" horiz-adv-x="240" 
d="M220 447v-35l-82 -56v-356h-36v331l-82 -56v35l82 56v364h36v-339z" />
    <glyph glyph-name="Nacute" unicode="&#x143;" horiz-adv-x="693" 
d="M307 770h33l88 123h-41zM563 700h37v-700h-33l-437 634v-634h-37v700h34l436 -634v634z" />
    <glyph glyph-name="nacute" unicode="&#x144;" horiz-adv-x="569" 
d="M381 693l-88 -123h-33l80 123h41zM308 511q87 0 139.5 -54t52.5 -143v-314h-35v314q0 73 -43 118t-117 45q-82 0 -134 -56t-52 -155v-266h-36v500h36v-111q26 61 75.5 91.5t113.5 30.5z" />
    <glyph glyph-name="Ncommaaccent" unicode="&#x145;" horiz-adv-x="693" 
d="M563 700h37v-700h-33l-437 634v-634h-37v700h34l436 -634v634zM340 -240l19 170h-35l-10 -170h26z" />
    <glyph glyph-name="ncommaaccent" unicode="&#x146;" horiz-adv-x="569" 
d="M308 511q87 0 139.5 -54t52.5 -143v-314h-35v314q0 73 -43 118t-117 45q-82 0 -134 -56t-52 -155v-266h-36v500h36v-111q26 61 75.5 91.5t113.5 30.5zM270 -240l10 170h35l-19 -170h-26z" />
    <glyph glyph-name="Ncaron" unicode="&#x147;" horiz-adv-x="693" 
d="M319 770l-110 123h39l91 -102l91 102h39l-110 -123h-40zM563 700h37v-700h-33l-437 634v-634h-37v700h34l436 -634v634z" />
    <glyph glyph-name="ncaron" unicode="&#x148;" horiz-adv-x="569" 
d="M272 570l-110 123h39l91 -102l91 102h39l-110 -123h-40zM308 511q87 0 139.5 -54t52.5 -143v-314h-35v314q0 73 -43 118t-117 45q-82 0 -134 -56t-52 -155v-266h-36v500h36v-111q26 61 75.5 91.5t113.5 30.5z" />
    <glyph glyph-name="Eng" unicode="&#x14a;" horiz-adv-x="693" 
d="M563 700h37v-700q0 -200 -200 -200v35q83 0 123 37.5t40 127.5v6l-433 628v-634h-37v700h34l436 -634v634z" />
    <glyph glyph-name="eng" unicode="&#x14b;" horiz-adv-x="569" 
d="M308 511q87 0 139.5 -54t52.5 -143v-387q0 -72 -39.5 -108.5t-113.5 -29.5v34q118 -13 118 104v387q0 73 -43 118t-117 45q-82 0 -134 -56t-52 -155v-266h-36v500h36v-111q26 61 75.5 91.5t113.5 30.5z" />
    <glyph glyph-name="Omacron" unicode="&#x14c;" horiz-adv-x="828" 
d="M291 794v30h247v-30h-247zM414 -11q-150 0 -255.5 105.5t-105.5 255.5t105.5 255.5t255.5 105.5t255.5 -105.5t105.5 -255.5t-105.5 -255.5t-255.5 -105.5zM414 24q135 0 229.5 95.5t94.5 230.5t-94.5 230.5t-229.5 95.5t-229.5 -95.5t-94.5 -230.5t94.5 -230.5
t229.5 -95.5z" />
    <glyph glyph-name="omacron" unicode="&#x14d;" horiz-adv-x="617" 
d="M180 594v30h247v-30h-247zM308 -11q-109 0 -185 75.5t-76 185.5t76 185.5t185 75.5q110 0 186 -75.5t76 -185.5t-76 -185.5t-186 -75.5zM308 23q95 0 161 65.5t66 161.5t-66 161.5t-161 65.5t-160.5 -65.5t-65.5 -161.5t65.5 -161.5t160.5 -65.5z" />
    <glyph glyph-name="Ohungarumlaut" unicode="&#x150;" horiz-adv-x="828" 
d="M297 770h34l75 130h-39zM437 770h34l85 130h-39zM414 -11q-150 0 -255.5 105.5t-105.5 255.5t105.5 255.5t255.5 105.5t255.5 -105.5t105.5 -255.5t-105.5 -255.5t-255.5 -105.5zM414 24q135 0 229.5 95.5t94.5 230.5t-94.5 230.5t-229.5 95.5t-229.5 -95.5t-94.5 -230.5
t94.5 -230.5t229.5 -95.5z" />
    <glyph glyph-name="ohungarumlaut" unicode="&#x151;" horiz-adv-x="617" 
d="M186 570h34l75 130h-39zM326 570h34l85 130h-39zM308 -11q-109 0 -185 75.5t-76 185.5t76 185.5t185 75.5q110 0 186 -75.5t76 -185.5t-76 -185.5t-186 -75.5zM308 23q95 0 161 65.5t66 161.5t-66 161.5t-161 65.5t-160.5 -65.5t-65.5 -161.5t65.5 -161.5t160.5 -65.5z
" />
    <glyph glyph-name="OE" unicode="&#x152;" horiz-adv-x="909" 
d="M536 34h326v-34h-363q-44 -11 -95 -11q-153 0 -252 104.5t-99 256.5t99 256.5t252 104.5q51 0 95 -11h358v-34h-321v-296h300v-34h-300v-302zM499 36v628q-42 12 -95 12q-138 0 -226 -94t-88 -232t88 -232t226 -94q53 0 95 12z" />
    <glyph glyph-name="oe" unicode="&#x153;" horiz-adv-x="1079" 
d="M788 511q109 0 177.5 -78t68.5 -185l-1 -17h-465q6 -93 68.5 -150.5t155.5 -57.5q63 0 111.5 26.5t72.5 70.5l31 -18q-31 -52 -87.5 -82.5t-127.5 -30.5q-88 0 -153.5 47.5t-89.5 127.5q-25 -78 -90 -126.5t-151 -48.5q-110 0 -185.5 75.5t-75.5 185.5t75.5 185.5
t185.5 75.5q86 0 151 -48.5t90 -126.5q25 79 88.5 127t150.5 48zM308 23q95 0 159 65.5t64 161.5t-64 161.5t-159 65.5q-96 0 -161 -65.5t-65 -161.5t65 -161.5t161 -65.5zM787 477q-92 0 -153.5 -59.5t-66.5 -153.5h431q-7 97 -66.5 155t-144.5 58z" />
    <glyph glyph-name="Racute" unicode="&#x154;" horiz-adv-x="617" 
d="M405 893l-88 -123h-33l80 123h41zM590 0h-41l-173 293h-9h-237v-293h-37v700h274q84 0 143.5 -59.5t59.5 -143.5q0 -71 -44 -126.5t-112 -72.5zM130 327h237q68 0 117 50t49 120t-49 119.5t-117 49.5h-237v-339z" />
    <glyph glyph-name="racute" unicode="&#x155;" horiz-adv-x="321" 
d="M277 693l-88 -123h-33l80 123h41zM119 387q22 61 70 90.5t106 29.5v-34q-74 0 -125 -50.5t-51 -144.5v-278h-36v500h36v-113z" />
    <glyph glyph-name="Rcommaaccent" unicode="&#x156;" horiz-adv-x="617" 
d="M590 0h-41l-173 293h-9h-237v-293h-37v700h274q84 0 143.5 -59.5t59.5 -143.5q0 -71 -44 -126.5t-112 -72.5zM130 327h237q68 0 117 50t49 120t-49 119.5t-117 49.5h-237v-339zM311 -240l10 170h35l-19 -170h-26z" />
    <glyph glyph-name="rcommaaccent" unicode="&#x157;" horiz-adv-x="321" 
d="M119 387q22 61 70 90.5t106 29.5v-34q-74 0 -125 -50.5t-51 -144.5v-278h-36v500h36v-113zM74 -240l10 170h35l-19 -170h-26z" />
    <glyph glyph-name="Rcaron" unicode="&#x158;" horiz-adv-x="617" 
d="M296 770l-110 123h39l91 -102l91 102h39l-110 -123h-40zM590 0h-41l-173 293h-9h-237v-293h-37v700h274q84 0 143.5 -59.5t59.5 -143.5q0 -71 -44 -126.5t-112 -72.5zM130 327h237q68 0 117 50t49 120t-49 119.5t-117 49.5h-237v-339z" />
    <glyph glyph-name="rcaron" unicode="&#x159;" horiz-adv-x="321" 
d="M168 570l-110 123h39l91 -102l91 102h39l-110 -123h-40zM119 387q22 61 70 90.5t106 29.5v-34q-74 0 -125 -50.5t-51 -144.5v-278h-36v500h36v-113z" />
    <glyph glyph-name="Sacute" unicode="&#x15a;" horiz-adv-x="572" 
d="M245 770h33l88 123h-41zM301 -11q-97 0 -162.5 44t-88.5 116l31 18q19 -65 76.5 -104t144.5 -39q90 0 138.5 43t48.5 110q0 62 -48 97t-144 64q-43 13 -69.5 22.5t-58 25.5t-49 34t-29.5 45t-12 61q0 80 59 132.5t150 52.5q80 0 135.5 -40.5t81.5 -104.5l-30 -17
q-49 127 -187 127q-80 0 -126.5 -43.5t-46.5 -105.5q0 -33 13 -57.5t43.5 -42.5t56.5 -28.5t75 -26.5q43 -14 70.5 -25t59.5 -28t50 -35.5t30 -45.5t12 -60q0 -85 -60.5 -137t-163.5 -52z" />
    <glyph glyph-name="sacute" unicode="&#x15b;" horiz-adv-x="461" 
d="M318 693l-88 -123h-33l80 123h41zM101 370q0 -40 32.5 -62.5t78.5 -33t92 -22.5t78.5 -41.5t32.5 -79.5q0 -61 -49.5 -101.5t-127.5 -40.5q-148 0 -188 109l29 17q31 -92 159 -92q61 0 101 29.5t40 78.5q0 41 -32.5 64t-78.5 33.5t-92 22.5t-78.5 41t-32.5 78
q0 60 46.5 100.5t122.5 40.5q59 0 102.5 -26.5t62.5 -71.5l-29 -17q-16 39 -52 60t-84 21q-58 0 -95.5 -29.5t-37.5 -77.5z" />
    <glyph glyph-name="Scedilla" unicode="&#x15e;" horiz-adv-x="572" 
d="M525 178q0 -84 -60 -136t-161 -53v-57q37 0 63.5 -18t26.5 -49q0 -40 -45 -60.5t-140 -11.5v29q153 -16 153 43q0 47 -89 43v82q-85 7 -143.5 50t-79.5 109l31 18q19 -65 76.5 -104t144.5 -39q90 0 138.5 43t48.5 110q0 62 -48 97t-144 64q-43 13 -69.5 22.5t-58 25.5
t-49 34t-29.5 45t-12 61q0 80 59 132.5t150 52.5q80 0 135.5 -40.5t81.5 -104.5l-30 -17q-49 127 -187 127q-80 0 -126.5 -43.5t-46.5 -105.5q0 -33 13 -57.5t43.5 -42.5t56.5 -28.5t75 -26.5q43 -14 70.5 -25t59.5 -28t50 -35.5t30 -45.5t12 -60z" />
    <glyph glyph-name="scedilla" unicode="&#x15f;" horiz-adv-x="461" 
d="M415 131q0 -57 -44.5 -97t-115.5 -44v-58q37 0 63.5 -18t26.5 -49q0 -40 -45 -60.5t-140 -11.5v29q153 -16 153 43q0 47 -89 43v81q-136 6 -174 109l29 17q31 -92 159 -92q61 0 101 29.5t40 78.5q0 41 -32.5 64t-78.5 33.5t-92 22.5t-78.5 41t-32.5 78q0 60 46.5 100.5
t122.5 40.5q59 0 102.5 -26.5t62.5 -71.5l-29 -17q-16 39 -52 60t-84 21q-58 0 -95.5 -29.5t-37.5 -77.5q0 -40 32.5 -62.5t78.5 -33t92 -22.5t78.5 -41.5t32.5 -79.5z" />
    <glyph glyph-name="Scaron" unicode="&#x160;" horiz-adv-x="572" 
d="M257 770l-110 123h39l91 -102l91 102h39l-110 -123h-40zM303 372q43 -14 70.5 -25t59.5 -28t50 -35.5t30 -45.5t12 -60q0 -85 -60.5 -137t-163.5 -52q-97 0 -162.5 44t-88.5 116l31 18q19 -65 76.5 -104t144.5 -39q90 0 138.5 43t48.5 110q0 62 -48 97t-144 64
q-43 13 -69.5 22.5t-58 25.5t-49 34t-29.5 45t-12 61q0 80 59 132.5t150 52.5q80 0 135.5 -40.5t81.5 -104.5l-30 -17q-49 127 -187 127q-80 0 -126.5 -43.5t-46.5 -105.5q0 -33 13 -57.5t43.5 -42.5t56.5 -28.5t75 -26.5z" />
    <glyph glyph-name="scaron" unicode="&#x161;" horiz-adv-x="461" 
d="M209 570l-110 123h39l91 -102l91 102h39l-110 -123h-40zM101 370q0 -40 32.5 -62.5t78.5 -33t92 -22.5t78.5 -41.5t32.5 -79.5q0 -61 -49.5 -101.5t-127.5 -40.5q-148 0 -188 109l29 17q31 -92 159 -92q61 0 101 29.5t40 78.5q0 41 -32.5 64t-78.5 33.5t-92 22.5
t-78.5 41t-32.5 78q0 60 46.5 100.5t122.5 40.5q59 0 102.5 -26.5t62.5 -71.5l-29 -17q-16 39 -52 60t-84 21q-58 0 -95.5 -29.5t-37.5 -77.5z" />
    <glyph glyph-name="uni0162" unicode="&#x162;" horiz-adv-x="540" 
d="M513 700v-34h-225v-666h-36v666h-225v34h486zM244 -240l10 170h35l-19 -170h-26z" />
    <glyph glyph-name="uni0163" unicode="&#x163;" horiz-adv-x="378" 
d="M331 467h-154v-349q0 -63 34 -80t120 -7v-31q-98 -15 -143.5 12.5t-45.5 105.5v349h-115v33h115v129l35 11v-140h154v-33zM210 -240l10 170h35l-19 -170h-26z" />
    <glyph glyph-name="Tcaron" unicode="&#x164;" horiz-adv-x="540" 
d="M249 770l-110 123h39l91 -102l91 102h39l-110 -123h-40zM513 700v-34h-225v-666h-36v666h-225v34h486z" />
    <glyph glyph-name="tcaron" unicode="&#x165;" horiz-adv-x="378" 
d="M285 713l-20 -153h-26l10 153h36zM331 467h-154v-349q0 -63 34 -80t120 -7v-31q-98 -15 -143.5 12.5t-45.5 105.5v349h-115v33h115v129l35 11v-140h154v-33z" />
    <glyph glyph-name="Tbar" unicode="&#x166;" horiz-adv-x="540" 
d="M513 666h-225v-299h162v-34h-162v-333h-36v333h-162v34h162v299h-225v34h486v-34z" />
    <glyph glyph-name="tbar" unicode="&#x167;" horiz-adv-x="378" 
d="M331 467h-154v-189h102v-29h-102v-131q0 -63 34 -80t120 -7v-31q-98 -15 -143.5 12.5t-45.5 105.5v131h-73v29h73v189h-115v33h115v129l35 11v-140h154v-33z" />
    <glyph glyph-name="Umacron" unicode="&#x16a;" horiz-adv-x="673" 
d="M210 794v30h247v-30h-247zM337 -11q-115 0 -184.5 66.5t-69.5 173.5v471h37v-471q0 -90 56.5 -147.5t160.5 -57.5q103 0 159.5 57.5t56.5 147.5v471h37v-471q0 -107 -69 -173.5t-184 -66.5z" />
    <glyph glyph-name="umacron" unicode="&#x16b;" horiz-adv-x="569" 
d="M401 624v-30h-247v30h247zM450 500h36v-500h-36v111q-26 -61 -75.5 -91.5t-113.5 -30.5q-87 0 -139.5 54t-52.5 143v314h35v-314q0 -73 43 -118t117 -45q82 0 134 56t52 155v266z" />
    <glyph glyph-name="Uring" unicode="&#x16e;" horiz-adv-x="673" 
d="M334 720q-44 0 -71.5 26.5t-27.5 66.5t27.5 66.5t71.5 26.5t71 -26.5t27 -66.5t-27 -66.5t-71 -26.5zM334 747q31 0 49.5 18t18.5 48t-18.5 48t-49.5 18t-50 -18.5t-19 -47.5t19 -47.5t50 -18.5zM337 -11q-115 0 -184.5 66.5t-69.5 173.5v471h37v-471q0 -90 56.5 -147.5
t160.5 -57.5q103 0 159.5 57.5t56.5 147.5v471h37v-471q0 -107 -69 -173.5t-184 -66.5z" />
    <glyph glyph-name="uring" unicode="&#x16f;" horiz-adv-x="569" 
d="M277 557q-44 0 -71.5 26.5t-27.5 66.5t27.5 66.5t71.5 26.5t71 -26.5t27 -66.5t-27 -66.5t-71 -26.5zM277 716q-31 0 -50 -18.5t-19 -47.5t19 -47.5t50 -18.5t49.5 18t18.5 48t-18.5 48t-49.5 18zM450 500h36v-500h-36v111q-26 -61 -75.5 -91.5t-113.5 -30.5
q-87 0 -139.5 54t-52.5 143v314h35v-314q0 -73 43 -118t117 -45q82 0 134 56t52 155v266z" />
    <glyph glyph-name="Uhungarumlaut" unicode="&#x170;" horiz-adv-x="673" 
d="M216 770h34l75 130h-39zM356 770h34l85 130h-39zM337 -11q-115 0 -184.5 66.5t-69.5 173.5v471h37v-471q0 -90 56.5 -147.5t160.5 -57.5q103 0 159.5 57.5t56.5 147.5v471h37v-471q0 -107 -69 -173.5t-184 -66.5z" />
    <glyph glyph-name="uhungarumlaut" unicode="&#x171;" horiz-adv-x="569" 
d="M269 700l-75 -130h-34l70 130h39zM419 700l-85 -130h-34l80 130h39zM450 500h36v-500h-36v111q-26 -61 -75.5 -91.5t-113.5 -30.5q-87 0 -139.5 54t-52.5 143v314h35v-314q0 -73 43 -118t117 -45q82 0 134 56t52 155v266z" />
    <glyph glyph-name="Uogonek" unicode="&#x172;" horiz-adv-x="673" 
d="M553 700h37v-471q0 -124 -89 -191q-78 -68 -106 -103.5t-28 -71.5q0 -21 13 -32.5t35 -11.5q25 0 44 8v-29q-22 -9 -50 -9q-35 0 -55 19t-20 51q0 65 84 140q-42 -10 -81 -10q-115 0 -184.5 66.5t-69.5 173.5v471h37v-471q0 -90 56.5 -147.5t160.5 -57.5
q103 0 159.5 57.5t56.5 147.5v471z" />
    <glyph glyph-name="uogonek" unicode="&#x173;" horiz-adv-x="569" 
d="M486 0q-90 -77 -90 -137q0 -21 12.5 -32.5t33.5 -11.5q25 0 44 8v-29q-21 -9 -50 -9q-34 0 -54 19t-20 51q0 63 88 147v105q-26 -61 -75.5 -91.5t-113.5 -30.5q-87 0 -139.5 54t-52.5 143v314h35v-314q0 -73 43 -118t117 -45q82 0 134 56t52 155v266h36v-500z" />
    <glyph glyph-name="Wcircumflex" unicode="&#x174;" horiz-adv-x="987" 
d="M446 872l-90 -102h-40l110 123h41l110 -123h-40zM912 700h38l-203 -700h-44l-210 653l-209 -653h-44l-203 700h38l187 -652l210 652h43l209 -652z" />
    <glyph glyph-name="wcircumflex" unicode="&#x175;" horiz-adv-x="770" 
d="M383 672l-90 -102h-40l110 123h41l110 -123h-40zM697 500h36l-160 -500h-39l-149 452l-149 -452h-39l-160 500h36l144 -454l149 454h38l149 -454z" />
    <glyph glyph-name="Ycircumflex" unicode="&#x176;" horiz-adv-x="572" 
d="M283 872l-90 -102h-40l110 123h41l110 -123h-40zM562 700l-258 -411v-289h-37v290l-257 410h41l235 -376l235 376h41z" />
    <glyph glyph-name="ycircumflex" unicode="&#x177;" horiz-adv-x="510" 
d="M261 672l-90 -102h-40l110 123h41l110 -123h-40zM457 500h36l-217 -546q-30 -74 -82 -116.5t-113 -37.5v33q50 -5 92.5 30t68.5 99l10 22l-235 516h36l216 -473z" />
    <glyph glyph-name="Ydieresis" unicode="&#x178;" horiz-adv-x="572" 
d="M200 778q-11 0 -19.5 8.5t-8.5 20.5q0 11 8.5 19.5t19.5 8.5q12 0 20.5 -8.5t8.5 -19.5q0 -12 -8.5 -20.5t-20.5 -8.5zM370 778q-11 0 -19.5 8.5t-8.5 20.5q0 11 8.5 19.5t19.5 8.5q12 0 20.5 -8.5t8.5 -19.5q0 -12 -8.5 -20.5t-20.5 -8.5zM562 700l-258 -411v-289h-37
v290l-257 410h41l235 -376l235 376h41z" />
    <glyph glyph-name="Zacute" unicode="&#x179;" horiz-adv-x="527" 
d="M356 893l-88 -123h-33l80 123h41zM88 34h402v-34h-443v34l393 632h-383v34h423v-34z" />
    <glyph glyph-name="zacute" unicode="&#x17a;" horiz-adv-x="483" 
d="M335 693l-88 -123h-33l80 123h41zM105 33h332v-33h-380v22l321 445h-311v33h360v-22z" />
    <glyph glyph-name="Zdotaccent" unicode="&#x17b;" horiz-adv-x="527" 
d="M268 777q-16 0 -27 11t-11 27t11 27t27 11q17 0 28 -11t11 -27t-11 -27t-28 -11zM88 34h402v-34h-443v34l393 632h-383v34h423v-34z" />
    <glyph glyph-name="zdotaccent" unicode="&#x17c;" horiz-adv-x="483" 
d="M247 577q-16 0 -27 11t-11 27t11 27t27 11q17 0 28 -11t11 -27t-11 -27t-28 -11zM105 33h332v-33h-380v22l321 445h-311v33h360v-22z" />
    <glyph glyph-name="Zcaron" unicode="&#x17d;" horiz-adv-x="527" 
d="M247 770l-110 123h39l91 -102l91 102h39l-110 -123h-40zM88 34h402v-34h-443v34l393 632h-383v34h423v-34z" />
    <glyph glyph-name="zcaron" unicode="&#x17e;" horiz-adv-x="483" 
d="M226 570l-110 123h39l91 -102l91 102h39l-110 -123h-40zM105 33h332v-33h-380v22l321 445h-311v33h360v-22z" />
    <glyph glyph-name="florin" unicode="&#x192;" horiz-adv-x="434" 
d="M256 584q13 75 63.5 107.5t114.5 10.5v-34q-53 22 -92.5 -2t-49.5 -85l-37 -213h126v-34h-132l-72 -420q-13 -75 -63 -107.5t-114 -10.5v34q52 -22 92 2t50 85l71 417h-119v34h125z" />
    <glyph glyph-name="Scommaaccent" unicode="&#x218;" horiz-adv-x="572" 
d="M301 -11q-97 0 -162.5 44t-88.5 116l31 18q19 -65 76.5 -104t144.5 -39q90 0 138.5 43t48.5 110q0 62 -48 97t-144 64q-43 13 -69.5 22.5t-58 25.5t-49 34t-29.5 45t-12 61q0 80 59 132.5t150 52.5q80 0 135.5 -40.5t81.5 -104.5l-30 -17q-49 127 -187 127
q-80 0 -126.5 -43.5t-46.5 -105.5q0 -33 13 -57.5t43.5 -42.5t56.5 -28.5t75 -26.5q43 -14 70.5 -25t59.5 -28t50 -35.5t30 -45.5t12 -60q0 -85 -60.5 -137t-163.5 -52zM291 -240l19 170h-35l-10 -170h26z" />
    <glyph glyph-name="scommaaccent" unicode="&#x219;" horiz-adv-x="461" 
d="M101 370q0 -40 32.5 -62.5t78.5 -33t92 -22.5t78.5 -41.5t32.5 -79.5q0 -61 -49.5 -101.5t-127.5 -40.5q-148 0 -188 109l29 17q31 -92 159 -92q61 0 101 29.5t40 78.5q0 41 -32.5 64t-78.5 33.5t-92 22.5t-78.5 41t-32.5 78q0 60 46.5 100.5t122.5 40.5
q59 0 102.5 -26.5t62.5 -71.5l-29 -17q-16 39 -52 60t-84 21q-58 0 -95.5 -29.5t-37.5 -77.5zM216 -240l10 170h35l-19 -170h-26z" />
    <glyph glyph-name="uni021A" unicode="&#x21a;" horiz-adv-x="540" 
d="M513 700v-34h-225v-666h-36v666h-225v34h486zM244 -240l10 170h35l-19 -170h-26z" />
    <glyph glyph-name="uni021B" unicode="&#x21b;" horiz-adv-x="378" 
d="M331 467h-154v-349q0 -63 34 -80t120 -7v-31q-98 -15 -143.5 12.5t-45.5 105.5v349h-115v33h115v129l35 11v-140h154v-33zM210 -240l10 170h35l-19 -170h-26z" />
    <glyph glyph-name="circumflex" unicode="&#x2c6;" horiz-adv-x="301" 
d="M281 570h-40l-91 102l-90 -102h-40l110 123h41z" />
    <glyph glyph-name="caron" unicode="&#x2c7;" horiz-adv-x="301" 
d="M242 693h39l-110 -123h-40l-110 123h39l91 -102z" />
    <glyph glyph-name="breve" unicode="&#x2d8;" horiz-adv-x="293" 
d="M147 569q-57 0 -92 30.5t-35 82.5h34q0 -39 25 -61t68 -22t68 22t25 61h34q0 -52 -34.5 -82.5t-92.5 -30.5z" />
    <glyph glyph-name="dotaccent" unicode="&#x2d9;" horiz-adv-x="117" 
d="M58 577q-16 0 -27 11t-11 27t11 27t27 11q17 0 28 -11t11 -27t-11 -27t-28 -11z" />
    <glyph glyph-name="ring" unicode="&#x2da;" horiz-adv-x="237" 
d="M119 557q-44 0 -71.5 26.5t-27.5 66.5t27.5 66.5t71.5 26.5t71 -26.5t27 -66.5t-27 -66.5t-71 -26.5zM119 584q31 0 49.5 18t18.5 48t-18.5 48t-49.5 18t-50 -18.5t-19 -47.5t19 -47.5t50 -18.5z" />
    <glyph glyph-name="ogonek" unicode="&#x2db;" horiz-adv-x="165" 
d="M95 -211q-35 0 -55 19t-20 51q0 66 85 141h39q-90 -77 -90 -137q0 -21 13 -32.5t34 -11.5q25 0 44 8v-29q-21 -9 -50 -9z" />
    <glyph glyph-name="tilde" unicode="&#x2dc;" horiz-adv-x="304" 
d="M20 587q0 75 41.5 93.5t94.5 -32.5q44 -43 70.5 -34t26.5 65h31q0 -75 -41.5 -93t-93.5 32q-44 43 -71 34.5t-27 -65.5h-31z" />
    <glyph glyph-name="hungarumlaut" unicode="&#x2dd;" horiz-adv-x="299" 
d="M20 570h34l75 130h-39zM160 570h34l85 130h-39z" />
    <glyph glyph-name="gravecomb" unicode="&#x300;" horiz-adv-x="0" 
d="M-20 570l-80 123h-41l88 -123h33z" />
    <glyph glyph-name="acutecomb" unicode="&#x301;" horiz-adv-x="0" 
d="M-141 570h33l88 123h-41z" />
    <glyph glyph-name="uni0302" unicode="&#x302;" horiz-adv-x="0" 
d="M-20 570h-40l-91 102l-90 -102h-40l110 123h41z" />
    <glyph glyph-name="tildecomb" unicode="&#x303;" horiz-adv-x="0" 
d="M-284 587q0 75 41.5 93.5t94.5 -32.5q44 -43 70.5 -34t26.5 65h31q0 -75 -41.5 -93t-93.5 32q-44 43 -71 34.5t-27 -65.5h-31z" />
    <glyph glyph-name="uni0304" unicode="&#x304;" horiz-adv-x="0" 
d="M-267 594v30h247v-30h-247z" />
    <glyph glyph-name="uni0306" unicode="&#x306;" horiz-adv-x="0" 
d="M-160 569q-57 0 -92 30.5t-35 82.5h34q0 -39 25 -61t68 -22t68 22t25 61h34q0 -52 -34.5 -82.5t-92.5 -30.5z" />
    <glyph glyph-name="uni0307" unicode="&#x307;" horiz-adv-x="0" 
d="M-59 577q-16 0 -27 11t-11 27t11 27t27 11q17 0 28 -11t11 -27t-11 -27t-28 -11z" />
    <glyph glyph-name="uni0308" unicode="&#x308;" horiz-adv-x="0" 
d="M-219 578q-11 0 -19.5 8.5t-8.5 20.5q0 11 8.5 19.5t19.5 8.5q12 0 20.5 -8.5t8.5 -19.5q0 -12 -8.5 -20.5t-20.5 -8.5zM-49 578q-11 0 -19.5 8.5t-8.5 20.5q0 11 8.5 19.5t19.5 8.5q12 0 20.5 -8.5t8.5 -19.5q0 -12 -8.5 -20.5t-20.5 -8.5z" />
    <glyph glyph-name="uni030A" unicode="&#x30a;" horiz-adv-x="0" 
d="M-118 557q-44 0 -71.5 26.5t-27.5 66.5t27.5 66.5t71.5 26.5t71 -26.5t27 -66.5t-27 -66.5t-71 -26.5zM-118 584q31 0 49.5 18t18.5 48t-18.5 48t-49.5 18t-50 -18.5t-19 -47.5t19 -47.5t50 -18.5z" />
    <glyph glyph-name="uni030B" unicode="&#x30b;" horiz-adv-x="0" 
d="M-272 570h34l75 130h-39zM-132 570h34l85 130h-39z" />
    <glyph glyph-name="uni030C" unicode="&#x30c;" horiz-adv-x="0" 
d="M-59 693h39l-110 -123h-40l-110 123h39l91 -102z" />
    <glyph glyph-name="uni0312" unicode="&#x312;" horiz-adv-x="0" 
d="M-46 960l-19 -170h35l10 170h-26z" />
    <glyph glyph-name="uni0326" unicode="&#x326;" horiz-adv-x="0" 
d="M-39 -240l19 170h-35l-10 -170h26z" />
    <glyph glyph-name="uni0327" unicode="&#x327;" horiz-adv-x="0" 
d="M-110 -68q37 0 63.5 -18t26.5 -49q0 -40 -45 -60.5t-140 -11.5v29q153 -16 153 43q0 47 -89 43v92h31v-68z" />
    <glyph glyph-name="uni0328" unicode="&#x328;" horiz-adv-x="0" 
d="M-70 -211q-35 0 -55 19t-20 51q0 66 85 141h39q-90 -77 -90 -137q0 -21 13 -32.5t34 -11.5q25 0 44 8v-29q-21 -9 -50 -9z" />
    <glyph glyph-name="uni0394" unicode="&#x394;" horiz-adv-x="622" 
d="M331 700l274 -700h-588l274 700h40zM68 34h486l-243 623z" />
    <glyph glyph-name="uni03A9" unicode="&#x3a9;" horiz-adv-x="828" 
d="M775 350q0 -104 -54.5 -188.5t-144.5 -127.5h188v-34h-270v34q107 27 175.5 114.5t68.5 201.5q0 135 -94.5 230.5t-229.5 95.5t-229.5 -95.5t-94.5 -230.5q0 -114 68.5 -201.5t175.5 -114.5v-34h-270v34h188q-91 43 -145 127.5t-54 188.5q0 150 105.5 255.5t255.5 105.5
t255.5 -105.5t105.5 -255.5z" />
    <glyph glyph-name="pi" unicode="&#x3c0;" horiz-adv-x="650" 
d="M613 500v-33h-83v-467h-35v467h-336v-467h-35v467h-87v33h576z" />
    <glyph glyph-name="uni0401" unicode="&#x401;" horiz-adv-x="537" 
d="M204 778q-11 0 -19.5 8.5t-8.5 20.5q0 11 8.5 19.5t19.5 8.5q12 0 20.5 -8.5t8.5 -19.5q0 -12 -8.5 -20.5t-20.5 -8.5zM374 778q-11 0 -19.5 8.5t-8.5 20.5q0 11 8.5 19.5t19.5 8.5q12 0 20.5 -8.5t8.5 -19.5q0 -12 -8.5 -20.5t-20.5 -8.5zM130 34h360v-34h-397v700h392
v-34h-355v-296h330v-34h-330v-302z" />
    <glyph glyph-name="uni0402" unicode="&#x402;" horiz-adv-x="699" 
d="M451 471q78 0 129 -46.5t51 -132.5v-161q0 -71 -39.5 -107.5t-113.5 -29.5v33q116 -11 116 104v161q0 69 -40 107t-102 38q-90 0 -184 -47v-390h-36v666h-205v34h483v-34h-242v-242q92 47 183 47z" />
    <glyph glyph-name="uni0403" unicode="&#x403;" horiz-adv-x="497" 
d="M364 892l-88 -123h-33l80 123h41zM470 700v-34h-340v-666h-37v700h377z" />
    <glyph glyph-name="uni0404" unicode="&#x404;" horiz-adv-x="756" 
d="M682 177l32 -18q-43 -78 -123.5 -124t-176.5 -46q-156 0 -258.5 105t-102.5 256t102.5 256t258.5 105q94 0 173.5 -45t123.5 -120l-32 -19q-38 68 -109 108.5t-156 40.5q-137 0 -227.5 -89t-96.5 -220h407v-34h-407q6 -131 96.5 -220t227.5 -89q86 0 158.5 41.5
t109.5 111.5z" />
    <glyph glyph-name="uni0405" unicode="&#x405;" horiz-adv-x="572" 
d="M301 -11q-97 0 -162.5 44t-88.5 116l31 18q19 -65 76.5 -104t144.5 -39q90 0 138.5 43t48.5 110q0 62 -48 97t-144 64q-43 13 -69.5 22.5t-58 25.5t-49 34t-29.5 45t-12 61q0 80 59 132.5t150 52.5q80 0 135.5 -40.5t81.5 -104.5l-30 -17q-49 127 -187 127
q-80 0 -126.5 -43.5t-46.5 -105.5q0 -33 13 -57.5t43.5 -42.5t56.5 -28.5t75 -26.5q43 -14 70.5 -25t59.5 -28t50 -35.5t30 -45.5t12 -60q0 -85 -60.5 -137t-163.5 -52z" />
    <glyph glyph-name="uni0406" unicode="&#x406;" horiz-adv-x="223" 
d="M93 700h37v-700h-37v700z" />
    <glyph glyph-name="uni0407" unicode="&#x407;" horiz-adv-x="223" 
d="M27 778q-11 0 -19.5 8.5t-8.5 20.5q0 11 8.5 19.5t19.5 8.5q12 0 20.5 -8.5t8.5 -19.5q0 -12 -8.5 -20.5t-20.5 -8.5zM197 778q-11 0 -19.5 8.5t-8.5 20.5q0 11 8.5 19.5t19.5 8.5q12 0 20.5 -8.5t8.5 -19.5q0 -12 -8.5 -20.5t-20.5 -8.5zM93 700h37v-700h-37v700z" />
    <glyph glyph-name="uni0408" unicode="&#x408;" horiz-adv-x="554" 
d="M250 -11q-73 0 -126.5 30.5t-76.5 85.5l30 18q40 -99 173 -99q85 0 134.5 44t49.5 118v514h36v-514q0 -91 -62 -144t-158 -53z" />
    <glyph glyph-name="uni0409" unicode="&#x409;" horiz-adv-x="995" 
d="M745 387q85 0 144 -55.5t59 -138.5t-59 -138t-144 -55h-210v666h-321v-383q0 -299 -192 -285v33q74 -7 114.5 51t40.5 202v416h395v-313h173zM745 34q70 0 118.5 45t48.5 114t-48.5 114.5t-118.5 45.5h-173v-319h173z" />
    <glyph glyph-name="uni040A" unicode="&#x40a;" horiz-adv-x="987" 
d="M737 387q85 0 144 -55.5t59 -138.5t-59 -138t-144 -55h-210v353h-397v-353h-37v700h37v-313h397v313h36v-313h174zM737 34q69 0 117.5 45t48.5 114t-48.5 114.5t-117.5 45.5h-174v-319h174z" />
    <glyph glyph-name="uni040B" unicode="&#x40b;" horiz-adv-x="708" 
d="M451 471q78 0 129 -46.5t51 -132.5v-292h-37v292q0 69 -40 107t-102 38q-90 0 -184 -47v-390h-36v666h-205v34h483v-34h-242v-242q92 47 183 47z" />
    <glyph glyph-name="uni040C" unicode="&#x40c;" horiz-adv-x="563" 
d="M374 892l-88 -123h-33l80 123h41zM553 0h-48l-375 350v-350h-37v700h37v-330l365 330h48l-373 -340z" />
    <glyph glyph-name="uni040E" unicode="&#x40e;" horiz-adv-x="563" 
d="M412 823v-30h-247v30h247zM509 700h37l-233 -547q-70 -163 -203 -153v33q110 -9 168 127l10 23l-251 517h37l232 -475z" />
    <glyph glyph-name="uni040F" unicode="&#x40f;" horiz-adv-x="687" 
d="M557 700h36v-700h-231v-134h-37v134h-232v700h37v-666h427v666z" />
    <glyph glyph-name="uni0410" unicode="&#x410;" horiz-adv-x="629" 
d="M570 0l-72 185h-367l-72 -185h-39l274 700h40l275 -700h-39zM144 219h341l-171 438z" />
    <glyph glyph-name="uni0411" unicode="&#x411;" horiz-adv-x="585" 
d="M340 407q84 0 143.5 -60t59.5 -144t-59.5 -143.5t-143.5 -59.5h-247v700h397v-34h-360v-259h210zM340 34q69 0 118 49.5t49 119.5t-49 120t-118 50h-210v-339h210z" />
    <glyph glyph-name="uni0412" unicode="&#x412;" horiz-adv-x="627" 
d="M447 361q59 -17 96 -65t37 -109q0 -77 -55 -132t-132 -55h-300v700h277q74 0 127 -53t53 -127q0 -53 -28 -95.5t-75 -63.5zM370 666h-240v-292h240q59 0 101 42.5t42 103.5q0 60 -42 103t-101 43zM393 34q62 0 106 44.5t44 108.5q0 63 -44 108t-106 45h-263v-306h263z
" />
    <glyph glyph-name="uni0413" unicode="&#x413;" horiz-adv-x="497" 
d="M470 700v-34h-340v-666h-37v700h377z" />
    <glyph glyph-name="uni0414" unicode="&#x414;" horiz-adv-x="690" 
d="M577 34h71v-168h-36v134h-554v-134h-36v168h54q74 82 74 253v413h427v-666zM187 286q0 -165 -66 -252h419v632h-353v-380z" />
    <glyph glyph-name="uni0415" unicode="&#x415;" horiz-adv-x="537" 
d="M130 34h360v-34h-397v700h392v-34h-355v-296h330v-34h-330v-302z" />
    <glyph glyph-name="uni0416" unicode="&#x416;" horiz-adv-x="822" 
d="M802 0h-44l-329 351v-351h-36v351l-329 -351h-44l335 360l-325 340h44l319 -332v332h36v-332l319 332h44l-325 -340z" />
    <glyph glyph-name="uni0417" unicode="&#x417;" horiz-adv-x="548" 
d="M368 360q65 -17 102.5 -65t37.5 -112q0 -85 -63 -139.5t-166 -54.5q-186 0 -239 150l31 18q42 -134 208 -134q88 0 140.5 45t52.5 115q0 68 -47 112.5t-127 44.5h-78v34h58q77 0 122.5 42.5t45.5 107.5q0 67 -47.5 110t-123.5 43q-140 0 -189 -122l-30 18q58 138 219 138
q91 0 149.5 -53.5t58.5 -134.5q0 -57 -30.5 -100t-84.5 -63z" />
    <glyph glyph-name="uni0418" unicode="&#x418;" horiz-adv-x="693" 
d="M563 0v634l-436 -634h-34v700h37v-634l437 634h33v-700h-37z" />
    <glyph glyph-name="uni0419" unicode="&#x419;" horiz-adv-x="693" 
d="M224 794v30h247v-30h-247zM563 0v634l-436 -634h-34v700h37v-634l437 634h33v-700h-37z" />
    <glyph glyph-name="uni041A" unicode="&#x41a;" horiz-adv-x="563" 
d="M553 0h-48l-375 350v-350h-37v700h37v-330l365 330h48l-373 -340z" />
    <glyph glyph-name="uni041B" unicode="&#x41b;" horiz-adv-x="702" 
d="M22 0v33q74 -8 114.5 49.5t40.5 201.5v416h431v-700h-36v666h-358v-383q0 -153 -48 -222t-144 -61z" />
    <glyph glyph-name="uni041C" unicode="&#x41c;" horiz-adv-x="813" 
d="M720 700v-700h-37v646l-272 -445h-9l-272 445v-646h-37v700h47l267 -438l267 438h46z" />
    <glyph glyph-name="uni041D" unicode="&#x41d;" horiz-adv-x="693" 
d="M563 700h37v-700h-37v343h-433v-343h-37v700h37v-323h433v323z" />
    <glyph glyph-name="uni041E" unicode="&#x41e;" horiz-adv-x="828" 
d="M414 -11q-150 0 -255.5 105.5t-105.5 255.5t105.5 255.5t255.5 105.5t255.5 -105.5t105.5 -255.5t-105.5 -255.5t-255.5 -105.5zM414 24q135 0 229.5 95.5t94.5 230.5t-94.5 230.5t-229.5 95.5t-229.5 -95.5t-94.5 -230.5t94.5 -230.5t229.5 -95.5z" />
    <glyph glyph-name="uni041F" unicode="&#x41f;" horiz-adv-x="687" 
d="M593 700v-700h-36v666h-427v-666h-37v700h500z" />
    <glyph glyph-name="uni0420" unicode="&#x420;" horiz-adv-x="583" 
d="M320 700q94 0 155.5 -60.5t61.5 -152.5t-61.5 -153t-155.5 -61h-190v-273h-37v700h227zM320 307q78 0 129 51t51 129q0 77 -51 128t-129 51h-190v-359h190z" />
    <glyph glyph-name="uni0421" unicode="&#x421;" horiz-adv-x="758" 
d="M416 -11q-156 0 -259.5 105t-103.5 256t103.5 256t259.5 105q93 0 173 -45t124 -120l-32 -19q-39 68 -110 108.5t-155 40.5q-141 0 -233.5 -94.5t-92.5 -231.5t92.5 -231.5t233.5 -94.5q86 0 158 41.5t109 111.5l33 -18q-43 -77 -123.5 -123.5t-176.5 -46.5z" />
    <glyph glyph-name="uni0422" unicode="&#x422;" horiz-adv-x="540" 
d="M513 700v-34h-225v-666h-36v666h-225v34h486z" />
    <glyph glyph-name="uni0423" unicode="&#x423;" horiz-adv-x="563" 
d="M509 700h37l-233 -547q-70 -163 -203 -153v33q110 -9 168 127l10 23l-251 517h37l232 -475z" />
    <glyph glyph-name="uni0424" unicode="&#x424;" horiz-adv-x="804" 
d="M767 350q0 -127 -96 -197.5t-251 -74.5v-78h-36v78q-155 4 -251 74.5t-96 197.5t96 197.5t251 74.5v78h36v-78q155 -4 251 -74.5t96 -197.5zM73 350q0 -110 83.5 -172.5t227.5 -66.5v478q-144 -4 -227.5 -66.5t-83.5 -172.5zM420 111q144 4 227.5 66.5t83.5 172.5
t-83.5 172.5t-227.5 66.5v-478z" />
    <glyph glyph-name="uni0425" unicode="&#x425;" horiz-adv-x="567" 
d="M540 0h-43l-214 326l-214 -326h-42l235 358l-224 342h42l204 -310l203 310h42l-224 -342z" />
    <glyph glyph-name="uni0426" unicode="&#x426;" horiz-adv-x="690" 
d="M580 34h72v-168h-37v134h-522v700h37v-666h413v666h37v-666z" />
    <glyph glyph-name="uni0427" unicode="&#x427;" horiz-adv-x="628" 
d="M498 700h37v-700h-37v309q-98 -46 -203 -46q-104 0 -162 54.5t-58 139.5v243h37v-243q0 -72 48 -116t135 -44q106 0 203 48v355z" />
    <glyph glyph-name="uni0428" unicode="&#x428;" horiz-adv-x="963" 
d="M833 700h37v-700h-777v700h37v-666h333v666h37v-666h333v666z" />
    <glyph glyph-name="uni0429" unicode="&#x429;" horiz-adv-x="980" 
d="M870 34h72v-168h-37v134h-812v700h37v-666h333v666h37v-666h333v666h37v-666z" />
    <glyph glyph-name="uni042A" unicode="&#x42a;" horiz-adv-x="687" 
d="M197 0v666h-197v34h233v-273h190q94 0 155.5 -61t61.5 -153t-61.5 -152.5t-155.5 -60.5h-226zM233 34h190q79 0 129.5 51t50.5 128q0 78 -51 129t-129 51h-190v-359z" />
    <glyph glyph-name="uni042B" unicode="&#x42b;" horiz-adv-x="752" 
d="M93 0v700h37v-273h190q94 0 155.5 -61t61.5 -153t-61.5 -152.5t-155.5 -60.5h-227zM622 0v700h36v-700h-36zM130 34h190q78 0 129 51t51 128q0 78 -51 129t-129 51h-190v-359z" />
    <glyph glyph-name="uni042C" unicode="&#x42c;" horiz-adv-x="583" 
d="M320 427q94 0 155.5 -61t61.5 -153t-61.5 -152.5t-155.5 -60.5h-227v700h37v-273h190zM320 34q78 0 129 51t51 128q0 78 -51 129t-129 51h-190v-359h190z" />
    <glyph glyph-name="uni042D" unicode="&#x42d;" horiz-adv-x="756" 
d="M342 711q156 0 258.5 -105t102.5 -256t-102.5 -256t-258.5 -105q-96 0 -176.5 46t-123.5 124l32 18q37 -70 109.5 -111.5t158.5 -41.5q137 0 227.5 89t96.5 220h-407v34h407q-6 131 -96.5 220t-227.5 89q-85 0 -156 -40.5t-109 -108.5l-32 19q44 75 123.5 120t173.5 45z
" />
    <glyph glyph-name="uni042E" unicode="&#x42e;" horiz-adv-x="1053" 
d="M639 711q150 0 255.5 -105.5t105.5 -255.5t-105.5 -255.5t-255.5 -105.5q-148 0 -252 103t-107 251h-150v-343h-37v700h37v-323h151q11 140 113.5 237t244.5 97zM639 24q135 0 229.5 95.5t94.5 230.5t-94.5 230.5t-229.5 95.5t-229.5 -95.5t-94.5 -230.5t94.5 -230.5
t229.5 -95.5z" />
    <glyph glyph-name="uni042F" unicode="&#x42f;" horiz-adv-x="633" 
d="M540 700v-700h-37v293h-217l-201 -293h-42l202 294q-77 8 -129.5 66.5t-52.5 136.5q0 84 60 143.5t144 59.5h273zM267 327h236v339h-236q-69 0 -118 -49.5t-49 -119.5t49 -120t118 -50z" />
    <glyph glyph-name="uni0430" unicode="&#x430;" horiz-adv-x="653" 
d="M535 500h35v-500h-35v134q-30 -66 -91 -105.5t-137 -39.5q-108 0 -184 75.5t-76 185.5t76 185.5t184 75.5q76 0 137 -39.5t91 -105.5v134zM308 23q95 0 161 65.5t66 161.5t-66 161.5t-161 65.5t-160.5 -65.5t-65.5 -161.5t65.5 -161.5t160.5 -65.5z" />
    <glyph glyph-name="uni0431" unicode="&#x431;" horiz-adv-x="576" 
d="M297 -11q-108 0 -179 70.5t-71 185.5q0 123 35.5 191.5t146.5 122.5q26 13 63.5 28.5t59 25.5t44.5 24t35.5 31.5t16.5 41.5l28 -16q-5 -26 -19 -46.5t-39.5 -36t-47.5 -26t-61 -26.5t-62 -27q-79 -38 -115 -83t-45 -123q36 63 95.5 95.5t123.5 32.5q99 0 166 -66
t67 -167t-68 -166.5t-174 -65.5zM297 23q91 0 149 55.5t58 142.5t-56.5 143.5t-144.5 56.5q-80 0 -143.5 -51.5t-76.5 -130.5q0 -95 60 -155.5t154 -60.5z" />
    <glyph glyph-name="uni0432" unicode="&#x432;" horiz-adv-x="513" 
d="M382 259q46 -13 70.5 -46t24.5 -78q0 -59 -39 -97t-113 -38h-242v500h224q70 0 107.5 -36t37.5 -93q0 -81 -70 -112zM307 467h-188v-195h188q52 0 81 26t29 72q0 45 -29 71t-81 26zM325 33q55 0 85.5 27.5t30.5 76.5q0 48 -30.5 75t-85.5 27h-206v-206h206z" />
    <glyph glyph-name="uni0433" unicode="&#x433;" horiz-adv-x="403" 
d="M390 500v-33h-271v-467h-36v500h307z" />
    <glyph glyph-name="uni0434" unicode="&#x434;" horiz-adv-x="590" 
d="M483 33h70v-167h-35v134h-456v-134h-35v167h55q57 80 57 213v254h344v-467zM126 33h322v434h-273v-221q0 -129 -49 -213z" />
    <glyph glyph-name="uni0435" unicode="&#x435;" horiz-adv-x="594" 
d="M302 511q110 0 178.5 -78t68.5 -185q0 -12 -1 -17h-465q6 -93 69 -150.5t155 -57.5q63 0 111.5 26.5t72.5 70.5l31 -18q-30 -52 -86.5 -82.5t-128.5 -30.5q-114 0 -187 73.5t-73 187.5q0 111 72 186t183 75zM302 477q-92 0 -153.5 -59.5t-66.5 -153.5h431
q-7 97 -66.5 155t-144.5 58z" />
    <glyph glyph-name="uni0436" unicode="&#x436;" horiz-adv-x="653" 
d="M626 0h-44l-238 250v-250h-35v250l-238 -250h-44l248 260l-238 240h44l228 -230v230h35v-230l228 230h44l-239 -240z" />
    <glyph glyph-name="uni0437" unicode="&#x437;" horiz-adv-x="445" 
d="M306 259q49 -13 75.5 -47.5t26.5 -80.5q0 -59 -47.5 -100.5t-132.5 -41.5q-152 0 -191 117l29 17q31 -100 162 -100q67 0 106 30t39 79q0 48 -34 77.5t-91 29.5h-64v33h46q55 0 86.5 28t31.5 74q0 45 -36 74t-93 29q-53 0 -90.5 -23t-53.5 -63l-29 17q20 47 64 75t109 28
q75 0 120 -39.5t45 -95.5q0 -39 -20 -70.5t-58 -46.5z" />
    <glyph glyph-name="uni0438" unicode="&#x438;" horiz-adv-x="573" 
d="M458 500h32v-500h-35v440l-340 -440h-32v500h36v-440z" />
    <glyph glyph-name="uni0439" unicode="&#x439;" horiz-adv-x="573" 
d="M164 594v30h247v-30h-247zM458 500h32v-500h-35v440l-340 -440h-32v500h36v-440z" />
    <glyph glyph-name="uni043A" unicode="&#x43a;" horiz-adv-x="472" 
d="M445 0h-48l-278 249v-249h-36v500h36v-230l268 230h48l-279 -240z" />
    <glyph glyph-name="uni043B" unicode="&#x43b;" 
d="M487 500v-500h-36v467h-276v-261q0 -219 -158 -206v33q62 -5 92 35.5t30 137.5v294h348z" />
    <glyph glyph-name="uni043C" unicode="&#x43c;" horiz-adv-x="643" 
d="M560 500v-500h-35v451l-200 -309h-7l-199 307v-449h-36v500h44l195 -299l195 299h43z" />
    <glyph glyph-name="uni043D" unicode="&#x43d;" horiz-adv-x="573" 
d="M455 500h35v-500h-35v233h-336v-233h-36v500h36v-233h336v233z" />
    <glyph glyph-name="uni043E" unicode="&#x43e;" horiz-adv-x="617" 
d="M308 -11q-109 0 -185 75.5t-76 185.5t76 185.5t185 75.5q110 0 186 -75.5t76 -185.5t-76 -185.5t-186 -75.5zM308 23q95 0 161 65.5t66 161.5t-66 161.5t-161 65.5t-160.5 -65.5t-65.5 -161.5t65.5 -161.5t160.5 -65.5z" />
    <glyph glyph-name="uni043F" unicode="&#x43f;" horiz-adv-x="573" 
d="M490 500v-500h-35v467h-336v-467h-36v500h407z" />
    <glyph glyph-name="uni0440" unicode="&#x440;" horiz-adv-x="653" 
d="M347 511q108 0 184 -75.5t76 -185.5t-76 -185.5t-184 -75.5q-77 0 -137 39t-91 105v-333h-36v700h36v-133q31 66 91 105t137 39zM345 23q95 0 160.5 65.5t65.5 161.5t-65.5 161.5t-160.5 65.5t-160.5 -65.5t-65.5 -161.5t65.5 -161.5t160.5 -65.5z" />
    <glyph glyph-name="uni0441" unicode="&#x441;" 
d="M308 -11q-111 0 -186 75t-75 186t75 186t186 75q73 0 132 -34t87 -91l-29 -17q-24 49 -75 78.5t-115 29.5q-96 0 -161 -65.5t-65 -161.5t65 -161.5t161 -65.5q64 0 114.5 29.5t76.5 78.5l29 -17q-29 -57 -88 -91t-132 -34z" />
    <glyph glyph-name="uni0442" unicode="&#x442;" horiz-adv-x="440" 
d="M423 500v-33h-185v-467h-36v467h-185v33h406z" />
    <glyph glyph-name="uni0443" unicode="&#x443;" horiz-adv-x="510" 
d="M457 500h36l-217 -546q-30 -74 -82 -116.5t-113 -37.5v33q50 -5 92.5 30t68.5 99l10 22l-235 516h36l216 -473z" />
    <glyph glyph-name="uni0444" unicode="&#x444;" horiz-adv-x="670" 
d="M623 250q0 -108 -75 -182t-195 -80v-188h-36v188q-120 6 -195 80t-75 182t75 182t195 80v188h36v-188q120 -6 195 -80t75 -182zM82 250q0 -95 65 -159t170 -70v458q-105 -6 -170 -70t-65 -159zM353 21q105 6 170 70t65 159t-65 159t-170 70v-458z" />
    <glyph glyph-name="uni0445" unicode="&#x445;" horiz-adv-x="503" 
d="M477 0h-43l-182 230l-182 -230h-43l204 257l-193 243h42l172 -216l171 216h43l-193 -243z" />
    <glyph glyph-name="uni0446" unicode="&#x446;" horiz-adv-x="597" 
d="M480 33h80v-167h-35v134h-442v500h36v-467h326v467h35v-467z" />
    <glyph glyph-name="uni0447" unicode="&#x447;" horiz-adv-x="543" 
d="M425 500h35v-500h-35v202q-73 -35 -163 -35q-94 0 -146.5 43.5t-52.5 122.5v167h36v-167q0 -65 42 -99.5t121 -34.5q85 0 163 36v265z" />
    <glyph glyph-name="uni0448" unicode="&#x448;" horiz-adv-x="823" 
d="M705 500h35v-500h-657v500h36v-467h275v467h35v-467h276v467z" />
    <glyph glyph-name="uni0449" unicode="&#x449;" horiz-adv-x="847" 
d="M740 33h70v-167h-35v134h-692v500h36v-467h275v467h35v-467h276v467h35v-467z" />
    <glyph glyph-name="uni044A" unicode="&#x44a;" horiz-adv-x="540" 
d="M340 302q68 0 115.5 -41.5t47.5 -108.5t-48 -109.5t-115 -42.5h-193v467h-147v33h182v-198h158zM340 33q55 0 91.5 33.5t36.5 85.5q0 51 -36.5 84t-91.5 33h-158v-236h158z" />
    <glyph glyph-name="uni044B" unicode="&#x44b;" horiz-adv-x="642" 
d="M276 302q68 0 116 -41.5t48 -108.5t-48 -109.5t-116 -42.5h-193v500h36v-198h157zM523 500h36v-500h-36v500zM276 33q55 0 92 33.5t37 85.5q0 51 -37 84t-92 33h-157v-236h157z" />
    <glyph glyph-name="uni044C" unicode="&#x44c;" horiz-adv-x="477" 
d="M276 302q68 0 116 -41.5t48 -108.5t-48 -109.5t-116 -42.5h-193v500h36v-198h157zM276 33q55 0 92 33.5t37 85.5q0 51 -37 84t-92 33h-157v-236h157z" />
    <glyph glyph-name="uni044D" unicode="&#x44d;" horiz-adv-x="559" 
d="M258 511q114 0 184 -74.5t70 -186.5t-70.5 -186.5t-184.5 -74.5q-78 0 -137.5 34t-86.5 92l30 17q24 -50 74.5 -79.5t119.5 -29.5q94 0 154 59t65 151h-267v34h267q-5 92 -64.5 151t-153.5 59q-67 0 -118 -29.5t-75 -79.5l-30 18q29 58 88 91.5t135 33.5z" />
    <glyph glyph-name="uni044E" unicode="&#x44e;" horiz-adv-x="807" 
d="M498 511q110 0 186 -75.5t76 -185.5t-76 -185.5t-186 -75.5q-104 0 -178.5 70t-80.5 174h-120v-233h-36v500h36v-233h120q6 104 80.5 174t178.5 70zM498 23q95 0 161 65.5t66 161.5t-66 161.5t-161 65.5t-160.5 -65.5t-65.5 -161.5t65.5 -161.5t160.5 -65.5z" />
    <glyph glyph-name="uni044F" unicode="&#x44f;" horiz-adv-x="500" 
d="M417 500v-500h-36v199h-130l-159 -199h-45l162 200q-63 5 -106 45t-43 103q0 67 48 109.5t116 42.5h193zM224 231h157v236h-157q-55 0 -92 -33.5t-37 -85.5q0 -51 37 -84t92 -33z" />
    <glyph glyph-name="uni0451" unicode="&#x451;" horiz-adv-x="594" 
d="M211 578q-11 0 -19.5 8.5t-8.5 20.5q0 11 8.5 19.5t19.5 8.5q12 0 20.5 -8.5t8.5 -19.5q0 -12 -8.5 -20.5t-20.5 -8.5zM381 578q-11 0 -19.5 8.5t-8.5 20.5q0 11 8.5 19.5t19.5 8.5q12 0 20.5 -8.5t8.5 -19.5q0 -12 -8.5 -20.5t-20.5 -8.5zM302 511q110 0 178.5 -78
t68.5 -185q0 -12 -1 -17h-465q6 -93 69 -150.5t155 -57.5q63 0 111.5 26.5t72.5 70.5l31 -18q-30 -52 -86.5 -82.5t-128.5 -30.5q-114 0 -187 73.5t-73 187.5q0 111 72 186t183 75zM302 477q-92 0 -153.5 -59.5t-66.5 -153.5h431q-7 97 -66.5 155t-144.5 58z" />
    <glyph glyph-name="uni0452" unicode="&#x452;" horiz-adv-x="586" 
d="M325 511q87 0 139.5 -54t52.5 -143v-387q0 -72 -39.5 -108.5t-113.5 -29.5v34q117 -13 117 104v387q0 73 -42.5 118t-116.5 45q-83 0 -135 -56t-52 -155v-266h-35v589h-77v29h77v82h35v-82h168v-29h-168v-202q26 61 75.5 92.5t114.5 31.5z" />
    <glyph glyph-name="uni0453" unicode="&#x453;" horiz-adv-x="403" 
d="M301 693l-88 -123h-33l80 123h41zM390 500v-33h-271v-467h-36v500h307z" />
    <glyph glyph-name="uni0454" unicode="&#x454;" horiz-adv-x="559" 
d="M496 132l30 -17q-27 -58 -86.5 -92t-137.5 -34q-114 0 -184.5 74.5t-70.5 186.5t70 186.5t184 74.5q76 0 135 -33.5t88 -91.5l-30 -18q-24 50 -75 79.5t-118 29.5q-94 0 -153.5 -59t-64.5 -151h267v-34h-267q5 -92 65 -151t154 -59q69 0 119.5 29.5t74.5 79.5z" />
    <glyph glyph-name="uni0455" unicode="&#x455;" horiz-adv-x="461" 
d="M101 370q0 -40 32.5 -62.5t78.5 -33t92 -22.5t78.5 -41.5t32.5 -79.5q0 -61 -49.5 -101.5t-127.5 -40.5q-148 0 -188 109l29 17q31 -92 159 -92q61 0 101 29.5t40 78.5q0 41 -32.5 64t-78.5 33.5t-92 22.5t-78.5 41t-32.5 78q0 60 46.5 100.5t122.5 40.5
q59 0 102.5 -26.5t62.5 -71.5l-29 -17q-16 39 -52 60t-84 21q-58 0 -95.5 -29.5t-37.5 -77.5z" />
    <glyph glyph-name="uni0456" unicode="&#x456;" horiz-adv-x="202" 
d="M101 636q-13 0 -22 9.5t-9 21.5q0 13 9 22.5t22 9.5t22 -9.5t9 -22.5q0 -12 -9 -21.5t-22 -9.5zM83 0v500h36v-500h-36z" />
    <glyph glyph-name="uni0457" unicode="&#x457;" horiz-adv-x="202" 
d="M16 578q-11 0 -19.5 8.5t-8.5 20.5q0 11 8.5 19.5t19.5 8.5q12 0 20.5 -8.5t8.5 -19.5q0 -12 -8.5 -20.5t-20.5 -8.5zM186 578q-11 0 -19.5 8.5t-8.5 20.5q0 11 8.5 19.5t19.5 8.5q12 0 20.5 -8.5t8.5 -19.5q0 -12 -8.5 -20.5t-20.5 -8.5zM83 0v500h36v-500h-36z" />
    <glyph glyph-name="uni0458" unicode="&#x458;" horiz-adv-x="216" 
d="M115 699q13 0 22 -9.5t9 -22.5q0 -12 -9 -21.5t-22 -9.5t-22 9.5t-9 21.5q0 13 9 22.5t22 9.5zM97 -73v573h36v-573q0 -72 -39.5 -108.5t-113.5 -29.5v34q117 -13 117 104z" />
    <glyph glyph-name="uni0459" unicode="&#x459;" horiz-adv-x="816" 
d="M626 282q66 0 110 -37t44 -103t-44.5 -104t-109.5 -38h-185v467h-266v-261q0 -219 -158 -206v33q62 -5 92 35.5t30 137.5v294h338v-218h149zM626 33q52 0 85 29t33 80q0 50 -33 78.5t-85 28.5h-149v-216h149z" />
    <glyph glyph-name="uni045A" unicode="&#x45a;" horiz-adv-x="803" 
d="M613 282q65 0 109 -37t44 -103t-44 -104t-109 -38h-185v249h-316v-249h-35v500h35v-218h316v218h35v-218h150zM613 33q52 0 85 29t33 80q0 50 -33 78.5t-85 28.5h-150v-216h150z" />
    <glyph glyph-name="uni045B" unicode="&#x45b;" horiz-adv-x="586" 
d="M325 511q87 0 139.5 -54t52.5 -143v-314h-36v314q0 73 -42.5 118t-116.5 45q-83 0 -135 -56t-52 -155v-266h-35v589h-77v29h77v82h35v-82h168v-29h-168v-202q26 61 75.5 92.5t114.5 31.5z" />
    <glyph glyph-name="uni045C" unicode="&#x45c;" horiz-adv-x="472" 
d="M327 693l-88 -123h-33l80 123h41zM445 0h-48l-278 249v-249h-36v500h36v-230l268 230h48l-279 -240z" />
    <glyph glyph-name="uni045E" unicode="&#x45e;" horiz-adv-x="510" 
d="M387 624v-30h-247v30h247zM457 500h36l-217 -546q-30 -74 -82 -116.5t-113 -37.5v33q50 -5 92.5 30t68.5 99l10 22l-235 516h36l216 -473z" />
    <glyph glyph-name="uni045F" unicode="&#x45f;" horiz-adv-x="573" 
d="M455 500h35v-500h-186v-134h-35v134h-186v500h36v-467h336v467z" />
    <glyph glyph-name="uni0490" unicode="&#x490;" horiz-adv-x="497" 
d="M433 820h37v-154h-340v-666h-37v700h340v120z" />
    <glyph glyph-name="uni0491" unicode="&#x491;" horiz-adv-x="403" 
d="M355 604h35v-137h-271v-467h-36v500h272v104z" />
    <glyph glyph-name="Wgrave" unicode="&#x1e80;" horiz-adv-x="987" 
d="M485 770l-80 123h-41l88 -123h33zM240 0l-203 700h38l187 -652l210 652h43l209 -652l188 652h38l-203 -700h-44l-210 653l-209 -653h-44z" />
    <glyph glyph-name="wgrave" unicode="&#x1e81;" horiz-adv-x="770" 
d="M422 570h-33l-88 123h41zM697 500h36l-160 -500h-39l-149 452l-149 -452h-39l-160 500h36l144 -454l149 454h38l149 -454z" />
    <glyph glyph-name="Wacute" unicode="&#x1e82;" horiz-adv-x="987" 
d="M415 770h33l88 123h-41zM240 0l-203 700h38l187 -652l210 652h43l209 -652l188 652h38l-203 -700h-44l-210 653l-209 -653h-44z" />
    <glyph glyph-name="wacute" unicode="&#x1e83;" horiz-adv-x="770" 
d="M473 693l-88 -123h-33l80 123h41zM697 500h36l-160 -500h-39l-149 452l-149 -452h-39l-160 500h36l144 -454l149 454h38l149 -454z" />
    <glyph glyph-name="Wdieresis" unicode="&#x1e84;" horiz-adv-x="987" 
d="M363 778q-11 0 -19.5 8.5t-8.5 20.5q0 11 8.5 19.5t19.5 8.5q12 0 20.5 -8.5t8.5 -19.5q0 -12 -8.5 -20.5t-20.5 -8.5zM533 778q-11 0 -19.5 8.5t-8.5 20.5q0 11 8.5 19.5t19.5 8.5q12 0 20.5 -8.5t8.5 -19.5q0 -12 -8.5 -20.5t-20.5 -8.5zM240 0l-203 700h38l187 -652
l210 652h43l209 -652l188 652h38l-203 -700h-44l-210 653l-209 -653h-44z" />
    <glyph glyph-name="wdieresis" unicode="&#x1e85;" horiz-adv-x="770" 
d="M300 578q-11 0 -19.5 8.5t-8.5 20.5q0 11 8.5 19.5t19.5 8.5q12 0 20.5 -8.5t8.5 -19.5q0 -12 -8.5 -20.5t-20.5 -8.5zM470 578q-11 0 -19.5 8.5t-8.5 20.5q0 11 8.5 19.5t19.5 8.5q12 0 20.5 -8.5t8.5 -19.5q0 -12 -8.5 -20.5t-20.5 -8.5zM697 500h36l-160 -500h-39
l-149 452l-149 -452h-39l-160 500h36l144 -454l149 454h38l149 -454z" />
    <glyph glyph-name="Ygrave" unicode="&#x1ef2;" horiz-adv-x="572" 
d="M322 770h-33l-88 123h41zM562 700l-258 -411v-289h-37v290l-257 410h41l235 -376l235 376h41z" />
    <glyph glyph-name="ygrave" unicode="&#x1ef3;" horiz-adv-x="510" 
d="M300 570h-33l-88 123h41zM457 500h36l-217 -546q-30 -74 -82 -116.5t-113 -37.5v33q50 -5 92.5 30t68.5 99l10 22l-235 516h36l216 -473z" />
    <glyph glyph-name="endash" unicode="&#x2013;" horiz-adv-x="687" 
d="M93 292v34h500v-34h-500z" />
    <glyph glyph-name="emdash" unicode="&#x2014;" horiz-adv-x="787" 
d="M93 292v34h600v-34h-600z" />
    <glyph glyph-name="quoteleft" unicode="&#x2018;" horiz-adv-x="207" 
d="M64 508l48 192h32l-36 -192h-44z" />
    <glyph glyph-name="quoteright" unicode="&#x2019;" horiz-adv-x="207" 
d="M143 700l-48 -192h-32l36 192h44z" />
    <glyph glyph-name="quotesinglbase" unicode="&#x201a;" horiz-adv-x="207" 
d="M143 52l-48 -192h-32l36 192h44z" />
    <glyph glyph-name="quotedblleft" unicode="&#x201c;" horiz-adv-x="320" 
d="M64 508l48 192h32l-36 -192h-44zM177 508l48 192h32l-36 -192h-44z" />
    <glyph glyph-name="quotedblright" unicode="&#x201d;" horiz-adv-x="320" 
d="M143 700l-48 -192h-32l36 192h44zM256 700l-48 -192h-32l36 192h44z" />
    <glyph glyph-name="quotedblbase" unicode="&#x201e;" horiz-adv-x="320" 
d="M143 52l-48 -192h-32l36 192h44zM256 52l-48 -192h-32l36 192h44z" />
    <glyph glyph-name="dagger" unicode="&#x2020;" horiz-adv-x="467" 
d="M400 520v-34h-149v-486h-35v486h-149v34h149v180h35v-180h149z" />
    <glyph glyph-name="daggerdbl" unicode="&#x2021;" horiz-adv-x="467" 
d="M400 486h-149v-272h149v-34h-149v-180h-35v180h-149v34h149v272h-149v34h149v180h35v-180h149v-34z" />
    <glyph glyph-name="bullet" unicode="&#x2022;" horiz-adv-x="260" 
d="M131 277q-31 0 -52.5 21.5t-21.5 52.5q0 30 21.5 51t52.5 21q30 0 51 -21t21 -51q0 -31 -21 -52.5t-51 -21.5z" />
    <glyph glyph-name="ellipsis" unicode="&#x2026;" horiz-adv-x="577" 
d="M98 -10q-14 0 -24.5 10t-10.5 25t10.5 25t24.5 10q15 0 25 -10t10 -25t-10 -25t-25 -10zM288 -10q-14 0 -24.5 10t-10.5 25t10.5 25t24.5 10q15 0 25 -10t10 -25t-10 -25t-25 -10zM478 -10q-14 0 -24.5 10t-10.5 25t10.5 25t24.5 10q15 0 25 -10t10 -25t-10 -25t-25 -10z
" />
    <glyph glyph-name="perthousand" unicode="&#x2030;" horiz-adv-x="1087" 
d="M220 413q-66 0 -109.5 43t-43.5 106t43.5 106t109.5 43t109.5 -43t43.5 -106t-43 -106t-110 -43zM220 445q52 0 85 33.5t33 83.5t-33.5 83.5t-84.5 33.5t-85 -33.5t-34 -83.5t34 -83.5t85 -33.5zM108 85l479 542l25 -14l-480 -542zM503 -11q-66 0 -109.5 43t-43.5 106
t43.5 106t109.5 43t109.5 -43t43.5 -106t-43.5 -106t-109.5 -43zM868 -11q-66 0 -109.5 43t-43.5 106t43.5 106t109.5 43t109.5 -43t43.5 -106t-43.5 -106t-109.5 -43zM503 21q51 0 84.5 33.5t33.5 83.5t-33.5 83.5t-84.5 33.5t-85 -33.5t-34 -83.5t34 -83.5t85 -33.5z
M868 21q51 0 84.5 33.5t33.5 83.5t-33.5 83.5t-84.5 33.5t-85 -33.5t-34 -83.5t34 -83.5t85 -33.5z" />
    <glyph glyph-name="guilsinglleft" unicode="&#x2039;" horiz-adv-x="325" 
d="M235 476l-103 -167l103 -167h-42l-103 167l103 167h42z" />
    <glyph glyph-name="guilsinglright" unicode="&#x203a;" horiz-adv-x="325" 
d="M132 476l103 -167l-103 -167h-42l103 167l-103 167h42z" />
    <glyph glyph-name="fraction" unicode="&#x2044;" horiz-adv-x="233" 
d="M-73 0h-34l414 700h33z" />
    <glyph glyph-name="Euro" unicode="&#x20ac;" horiz-adv-x="611" 
d="M373 24q61 0 105.5 30.5t67.5 86.5l30 -16q-26 -65 -78.5 -100.5t-124.5 -35.5q-106 0 -173.5 75.5t-84.5 205.5h-88v31h85q-2 32 -2 49t2 51h-85v32h88q18 129 85.5 203.5t172.5 74.5q72 0 124.5 -35.5t78.5 -99.5l-31 -17q-47 117 -172 117q-88 0 -146.5 -64
t-74.5 -179h281v-32h-284q-2 -32 -2 -51q0 -17 2 -49h284v-31h-281q16 -116 74 -181t147 -65z" />
    <glyph glyph-name="uni20BD" unicode="&#x20bd;" horiz-adv-x="563" 
d="M327 293h-194v-112h274v-32h-274v-149h-36v149h-90v32h90v112h-90v34h90v373h230q84 0 143.5 -59.5t59.5 -143.5t-59.5 -144t-143.5 -60zM133 666v-339h194q68 0 117 50t49 120t-49 119.5t-117 49.5h-194z" />
    <glyph glyph-name="uni2116" unicode="&#x2116;" horiz-adv-x="1023" 
d="M830 424q-62 0 -104 42t-42 102t42 101.5t104 41.5t104 -41.5t42 -101.5t-41.5 -102t-104.5 -42zM563 700h37v-700h-33l-437 634v-634h-37v700h34l436 -634v634zM830 456q48 0 80 32t32 80q0 47 -32 79t-80 32t-80 -32t-32 -79t32 -79.5t80 -32.5zM694 302v33h271v-33
h-271z" />
    <glyph glyph-name="trademark" unicode="&#x2122;" horiz-adv-x="492" 
d="M206 700v-25h-60v-175h-27v175h-59v25h146zM405 700h27v-200h-27v154l-69 -111h-4l-69 111v-154h-27v200h27l71 -115z" />
    <glyph glyph-name="estimated" unicode="&#x212e;" horiz-adv-x="847" 
d="M423 710q163 0 266.5 -104t103.5 -256q0 -15 -15 -15h-560q-15 0 -15 -15v-192q0 -11 7 -19q84 -89 233 -89q145 0 231 97q8 9 18 9h37q10 0 13 -6t-4 -13q-109 -117 -295 -117q-176 0 -283 103.5t-107 256.5q0 152 103.5 256t266.5 104zM643 572q0 11 -7 19
q-84 89 -213 89t-213 -89q-7 -8 -7 -19v-192q0 -15 15 -15h410q15 0 15 15v192z" />
    <glyph glyph-name="oneeighth" unicode="&#x215b;" horiz-adv-x="827" 
d="M170 300h-34v360l-110 -38l-9 29l128 49h25v-400zM553 700h33l-413 -700h-34zM716 210q35 -14 56 -42t21 -65q0 -52 -39 -83.5t-100 -31.5q-63 0 -101.5 31.5t-38.5 83.5q0 37 21 65t56 42q-64 28 -64 91q0 51 36.5 81t90.5 30q53 0 89.5 -30t36.5 -81q0 -62 -64 -91z
M561 301q0 -34 27 -55t66 -21t65.5 21t26.5 55q0 37 -26 58.5t-66 21.5q-41 0 -67 -21.5t-26 -58.5zM654 20q47 0 76 23t29 62q0 40 -29.5 64t-75.5 24q-48 0 -77 -23.5t-29 -64.5q0 -39 29 -62t77 -23z" />
    <glyph glyph-name="threeeighths" unicode="&#x215c;" horiz-adv-x="927" 
d="M303 414q0 -55 -37 -90.5t-101 -35.5q-101 0 -133 77l28 16q25 -61 105 -61q50 0 77 26.5t27 67.5q0 40 -27 66.5t-77 26.5h-3l-17 25l103 136h-205v32h244v-32l-101 -133q55 -6 86 -39.5t31 -81.5zM653 700h33l-413 -700h-34zM816 210q35 -14 56 -42t21 -65
q0 -52 -39 -83.5t-100 -31.5q-63 0 -101.5 31.5t-38.5 83.5q0 37 21 65t56 42q-64 28 -64 91q0 51 36.5 81t90.5 30q53 0 89.5 -30t36.5 -81q0 -62 -64 -91zM661 301q0 -34 27 -55t66 -21t65.5 21t26.5 55q0 37 -26 58.5t-66 21.5q-41 0 -67 -21.5t-26 -58.5zM754 20
q47 0 76 23t29 62q0 40 -29.5 64t-75.5 24q-48 0 -77 -23.5t-29 -64.5q0 -39 29 -62t77 -23z" />
    <glyph glyph-name="fiveeighths" unicode="&#x215d;" horiz-adv-x="919" 
d="M297 414q0 -56 -37 -91t-99 -35q-97 0 -131 76l28 15q27 -59 103 -59q47 0 74.5 25.5t27.5 68.5t-27.5 69t-74.5 26h-114l15 191h219v-31h-189l-11 -128h81q60 0 97.5 -35.5t37.5 -91.5zM645 700h33l-413 -700h-34zM808 210q35 -14 56 -42t21 -65q0 -52 -39 -83.5
t-100 -31.5q-63 0 -101.5 31.5t-38.5 83.5q0 37 21 65t56 42q-64 28 -64 91q0 51 36.5 81t90.5 30q53 0 89.5 -30t36.5 -81q0 -62 -64 -91zM653 301q0 -34 27 -55t66 -21t65.5 21t26.5 55q0 37 -26 58.5t-66 21.5q-41 0 -67 -21.5t-26 -58.5zM746 20q47 0 76 23t29 62
q0 40 -29.5 64t-75.5 24q-48 0 -77 -23.5t-29 -64.5q0 -39 29 -62t77 -23z" />
    <glyph glyph-name="seveneighths" unicode="&#x215e;" horiz-adv-x="904" 
d="M289 700v-27l-161 -373h-37l160 368h-228v32h266zM630 700h33l-413 -700h-34zM793 210q35 -14 56 -42t21 -65q0 -52 -39 -83.5t-100 -31.5q-63 0 -101.5 31.5t-38.5 83.5q0 37 21 65t56 42q-64 28 -64 91q0 51 36.5 81t90.5 30q53 0 89.5 -30t36.5 -81q0 -62 -64 -91z
M638 301q0 -34 27 -55t66 -21t65.5 21t26.5 55q0 37 -26 58.5t-66 21.5q-41 0 -67 -21.5t-26 -58.5zM731 20q47 0 76 23t29 62q0 40 -29.5 64t-75.5 24q-48 0 -77 -23.5t-29 -64.5q0 -39 29 -62t77 -23z" />
    <glyph glyph-name="arrowleft" unicode="&#x2190;" horiz-adv-x="833" 
d="M767 367v-34h-635l283 -283h-48l-300 300l300 300h48l-283 -283h635z" />
    <glyph glyph-name="arrowup" unicode="&#x2191;" horiz-adv-x="733" 
d="M667 400v-48l-283 283v-635h-35v634l-282 -282v48l300 300z" />
    <glyph glyph-name="arrowright" unicode="&#x2192;" horiz-adv-x="833" 
d="M467 650l300 -300l-300 -300h-48l283 283h-635v34h635l-283 283h48z" />
    <glyph glyph-name="arrowdown" unicode="&#x2193;" horiz-adv-x="733" 
d="M384 65l283 283v-48l-300 -300l-300 300v48l282 -282v634h35v-635z" />
    <glyph glyph-name="arrowboth" unicode="&#x2194;" horiz-adv-x="1027" 
d="M717 593l243 -243l-243 -243h-48l226 226h-763l226 -226h-48l-243 243l243 243h48l-226 -226h763l-226 226h48z" />
    <glyph glyph-name="arrowupdn" unicode="&#x2195;" horiz-adv-x="633" 
d="M560 506l-226 226v-764l226 226v-48l-243 -243l-244 243v48l226 -225v762l-226 -225v48l244 243l243 -243v-48z" />
    <glyph glyph-name="uni2196" unicode="&#x2196;" horiz-adv-x="641" 
d="M574 105l-26 -25l-448 449v-400l-33 34v424h424l33 -34h-398z" />
    <glyph glyph-name="uni2197" unicode="&#x2197;" horiz-adv-x="641" 
d="M150 587h424v-424l-34 -34v399l-448 -448l-25 25l448 448h-399z" />
    <glyph glyph-name="uni2198" unicode="&#x2198;" horiz-adv-x="641" 
d="M540 547l34 -34v-424h-424l-34 34h399l-448 448l25 25l448 -448v399z" />
    <glyph glyph-name="uni2199" unicode="&#x2199;" horiz-adv-x="641" 
d="M574 571l-448 -448h398l-33 -34h-424v424l33 34v-400l448 449z" />
    <glyph glyph-name="partialdiff" unicode="&#x2202;" horiz-adv-x="579" 
d="M235 711q118 0 197.5 -99.5t79.5 -261.5q0 -170 -70.5 -265.5t-181.5 -95.5q-93 0 -148 60t-55 151q0 103 60.5 166.5t164.5 63.5q109 0 195 -58q-5 132 -71 218.5t-171 86.5q-72 0 -124 -34v36q54 32 124 32zM260 23q96 0 154.5 83t62.5 227q-85 64 -195 64
q-87 0 -138.5 -53t-51.5 -144q0 -78 45.5 -127.5t122.5 -49.5z" />
    <glyph glyph-name="emptyset" unicode="&#x2205;" horiz-adv-x="831" 
d="M658 618q119 -108 119 -268q0 -150 -106 -255.5t-256 -105.5q-122 0 -219 73l-68 -82h-39l84 101q-56 50 -88 120t-32 149q0 150 106 255.5t256 105.5q125 0 219 -74l69 83h39zM87 350q0 -147 107 -244l420 507q-89 66 -199 66q-137 0 -232.5 -96t-95.5 -233zM415 21
q137 0 233 96t96 233q0 146 -107 243l-420 -506q89 -66 198 -66z" />
    <glyph glyph-name="product" unicode="&#x220f;" horiz-adv-x="640" 
d="M93 -200v900h454v-900h-36v867h-382v-867h-36z" />
    <glyph glyph-name="summation" unicode="&#x2211;" horiz-adv-x="541" 
d="M63 -200v33l266 427l-252 407v33h413v-33h-373l253 -407l-267 -427h402v-33h-442z" />
    <glyph glyph-name="minus" unicode="&#x2212;" horiz-adv-x="540" 
d="M67 333v34h406v-34h-406z" />
    <glyph glyph-name="radical" unicode="&#x221a;" horiz-adv-x="634" 
d="M304 0l-157 267h-80v33h99l154 -260l251 760h36l-265 -800h-38z" />
    <glyph glyph-name="infinity" unicode="&#x221e;" horiz-adv-x="813" 
d="M597 503q65 0 108 -42.5t43 -110.5t-43 -110.5t-108 -42.5q-42 0 -81 21.5t-60.5 44.5t-48.5 59q-28 -36 -49.5 -59t-60.5 -44.5t-81 -21.5q-65 0 -108 42.5t-43 110.5t43 110.5t108 42.5q42 0 81 -21.5t60.5 -44.5t49.5 -59q27 36 48.5 59t60.5 44.5t81 21.5zM216 229
q36 0 70 20.5t53.5 42t46.5 58.5q-27 37 -46.5 58.5t-53.5 42t-70 20.5q-51 0 -83.5 -33.5t-32.5 -87.5t32.5 -87.5t83.5 -33.5zM597 229q51 0 83.5 33.5t32.5 87.5t-32.5 87.5t-83.5 33.5t-90 -32.5t-79 -88.5q26 -36 45.5 -58t53.5 -42.5t70 -20.5z" />
    <glyph glyph-name="integral" unicode="&#x222b;" horiz-adv-x="434" 
d="M0 -203v34q52 -22 88.5 2t47.5 85l114 667q13 78 62.5 109t121.5 9v-34q-60 21 -98.5 -2.5t-49.5 -84.5l-115 -667q-13 -76 -60.5 -108t-110.5 -10z" />
    <glyph glyph-name="approxequal" unicode="&#x2248;" horiz-adv-x="579" 
d="M281 415q-36 25 -66 33.5t-49 4.5t-33.5 -18t-21.5 -29t-12 -33l-32 14q7 27 23 50t42.5 40.5t70 10.5t95.5 -43q45 -31 79.5 -38t55 7t31.5 31.5t17 41.5l32 -14q-6 -21 -16.5 -40t-30 -36t-44 -23.5t-61.5 3t-80 38.5zM99 213l-32 14q7 27 23 50t42.5 40.5t70 10.5
t95.5 -43q45 -31 79.5 -38t55 7t31.5 31.5t17 41.5l32 -14q-6 -21 -16.5 -40t-30 -36t-44 -23.5t-61.5 3t-80 38.5q-36 25 -66 33.5t-49 4.5t-33.5 -18t-21.5 -29t-12 -33z" />
    <glyph glyph-name="notequal" unicode="&#x2260;" horiz-adv-x="533" 
d="M467 433h-143l-77 -166h220v-34h-235l-74 -160h-30l74 160h-135v34h150l77 166h-227v34h242l74 160h30l-74 -160h128v-34z" />
    <glyph glyph-name="lessequal" unicode="&#x2264;" horiz-adv-x="533" 
d="M466 587v-38l-357 -140l357 -140v-38l-400 161v34zM66 113v34h400v-34h-400z" />
    <glyph glyph-name="greaterequal" unicode="&#x2265;" horiz-adv-x="533" 
d="M67 587l400 -161v-34l-400 -161v38l357 140l-357 140v38zM67 113v34h400v-34h-400z" />
    <glyph glyph-name="lozenge" unicode="&#x25ca;" horiz-adv-x="536" 
d="M250 0l-187 350l187 350h36l187 -350l-187 -350h-36zM268 39l166 311l-166 311l-166 -311z" />
    <glyph glyph-name="i.loclTRK" horiz-adv-x="202" 
d="M101 577q-16 0 -27 11t-11 27t11 27t27 11q17 0 28 -11t11 -27t-11 -27t-28 -11zM83 0v500h36v-500h-36z" />
    <glyph glyph-name="f_f_j" horiz-adv-x="774" 
d="M691 500v-573q0 -72 -39.5 -108.5t-113.5 -29.5v34q117 -13 117 104v540h-234v-467h-35v467h-234v-467h-35v467h-89v33h89v33q0 90 47.5 137.5t141.5 40.5v-34q-154 13 -154 -144v-33h234v43q0 178 189 178q50 0 99 -11v-32q-46 9 -99 9q-80 0 -117 -35t-37 -109v-43h270
z" />
    <glyph glyph-name="f_j" horiz-adv-x="505" 
d="M421 500v-573q0 -72 -39 -108.5t-113 -29.5v34q117 -13 117 104v540h-234v-467h-35v467h-89v33h89v33q0 178 189 178q49 0 99 -11v-32q-47 9 -99 9q-81 0 -117.5 -34.5t-36.5 -109.5v-33h269z" />
    <glyph glyph-name="uni0414.loclBGR" horiz-adv-x="707" 
d="M615 34h63v-168h-36v134h-577v-134h-37v168h63l242 666h40zM130 34h447l-224 623z" />
    <glyph glyph-name="uni041B.loclBGR" horiz-adv-x="601" 
d="M281 700h40l264 -700h-40l-244 654l-245 -654h-39z" />
    <glyph glyph-name="uni0424.loclBGR" horiz-adv-x="857" 
d="M804 350q0 -158 -99.5 -256.5t-257.5 -104.5v-89h-37v89q-158 6 -257.5 104.5t-99.5 256.5t99.5 256.5t257.5 104.5v89h37v-89q158 -6 257.5 -104.5t99.5 -256.5zM447 23q147 6 233.5 96t86.5 231t-86.5 231t-233.5 96v-654zM90 350q0 -142 86.5 -231.5t233.5 -95.5v654
q-147 -6 -233.5 -95.5t-86.5 -231.5z" />
    <glyph glyph-name="uni0414.ss01" horiz-adv-x="690" 
d="M577 34h71v-34h-626v34h54q74 82 74 253v413h427v-666zM187 286q0 -165 -66 -252h419v632h-353v-380z" />
    <glyph glyph-name="uni0426.ss01" horiz-adv-x="690" 
d="M580 34h72v-34h-559v700h37v-666h413v666h37v-666z" />
    <glyph glyph-name="uni0429.ss01" horiz-adv-x="980" 
d="M870 34h72v-34h-849v700h37v-666h333v666h37v-666h333v666h37v-666z" />
    <glyph glyph-name="uni0414.loclBGR.ss01" horiz-adv-x="707" 
d="M615 34h63v-34h-650v34h63l242 666h40zM130 34h447l-224 623z" />
    <glyph glyph-name="uni0432.loclBGR" horiz-adv-x="577" 
d="M378 403q73 -14 112.5 -67.5t39.5 -135.5q0 -99 -59 -155t-164 -56q-106 0 -165 64t-59 177v242q0 112 55.5 175.5t154.5 63.5q79 0 124.5 -45t45.5 -112q0 -90 -85 -151zM293 677q-83 0 -128.5 -54t-45.5 -151v-96l127 25q40 8 84 8q48 28 73 66.5t25 78.5q0 51 -36 87
t-99 36zM307 23q89 0 138.5 46.5t49.5 130.5q0 97 -64.5 144t-184.5 24l-127 -25v-113q0 -98 49.5 -152.5t138.5 -54.5z" />
    <glyph glyph-name="uni0433.loclBGR" horiz-adv-x="461" 
d="M387 120l29 -17q-18 -52 -66.5 -83t-120.5 -31q-79 0 -128 39t-49 99q0 51 32 81.5t77.5 43t90.5 23.5t77 34t32 64q0 47 -36 75.5t-90 28.5q-52 0 -90 -23t-54 -63l-29 17q20 46 64.5 74.5t108.5 28.5q71 0 116 -39.5t45 -98.5q0 -50 -32 -79.5t-77.5 -42t-90.5 -23.5
t-77 -35t-32 -66q0 -49 40 -76.5t102 -27.5q61 0 102 26t56 71z" />
    <glyph glyph-name="uni0434.loclBGR" horiz-adv-x="660" 
d="M541 500h36v-473q0 -110 -68 -174t-180 -64q-86 0 -147 33t-87 87l30 17q21 -45 72.5 -74t131.5 -29q100 0 156 55t56 149v106q-31 -66 -91 -105t-137 -39q-108 0 -184 75.5t-76 185.5t76 185.5t184 75.5q77 0 137 -39t91 -105v133zM315 23q95 0 160.5 65.5t65.5 161.5
t-65.5 161.5t-160.5 65.5t-160.5 -65.5t-65.5 -161.5t65.5 -161.5t160.5 -65.5z" />
    <glyph glyph-name="uni0436.loclBGR" horiz-adv-x="653" 
d="M626 0h-44l-238 249v-249h-35v249l-238 -249h-44l248 260l-238 240h44l228 -229v429h35v-429l228 229h44l-239 -240z" />
    <glyph glyph-name="uni0438.loclBGR" horiz-adv-x="569" 
d="M450 500h36v-500h-36v111q-26 -61 -75.5 -91.5t-113.5 -30.5q-87 0 -139.5 54t-52.5 143v314h35v-314q0 -73 43 -118t117 -45q82 0 134 56t52 155v266z" />
    <glyph glyph-name="uni0439.loclBGR" horiz-adv-x="569" 
d="M401 624v-30h-247v30h247zM450 500h36v-500h-36v111q-26 -61 -75.5 -91.5t-113.5 -30.5q-87 0 -139.5 54t-52.5 143v314h35v-314q0 -73 43 -118t117 -45q82 0 134 56t52 155v266z" />
    <glyph glyph-name="uni043A.loclBGR" horiz-adv-x="472" 
d="M445 0h-48l-278 249v-249h-36v700h36v-430l268 230h48l-279 -240z" />
    <glyph glyph-name="uni043B.loclBGR" horiz-adv-x="511" 
d="M495 0h-38l-201 463l-202 -463h-37l218 500h41z" />
    <glyph glyph-name="uni043F.loclBGR" horiz-adv-x="569" 
d="M308 511q87 0 139.5 -54t52.5 -143v-314h-35v314q0 73 -43 118t-117 45q-82 0 -134 -56t-52 -155v-266h-36v500h36v-111q26 61 75.5 91.5t113.5 30.5z" />
    <glyph glyph-name="uni0442.loclBGR" horiz-adv-x="866" 
d="M619 511q79 0 128.5 -49t49.5 -140v-322h-36v322q0 75 -38.5 115t-103.5 40q-71 0 -116 -51t-45 -146v-280h-36v322q0 75 -37.5 115t-100.5 40q-72 0 -118.5 -51t-46.5 -146v-280h-36v500h36v-98q48 109 168 109q58 0 101 -29.5t60 -85.5q24 57 70 86t101 29z" />
    <glyph glyph-name="uni0446.loclBGR" horiz-adv-x="595" 
d="M532 33h26v-167h-35v134q-33 2 -52.5 23.5t-19.5 56.5v33q-26 -61 -75.5 -92.5t-114.5 -31.5q-87 0 -139.5 54t-52.5 143v314h36v-314q0 -73 42.5 -118t116.5 -45q83 0 135 56t52 155v266h35v-420q0 -22 12.5 -34.5t33.5 -12.5z" />
    <glyph glyph-name="uni0448.loclBGR" horiz-adv-x="866" 
d="M747 500h36v-500h-36v98q-48 -109 -168 -109q-58 0 -101 29.5t-60 85.5q-24 -57 -70 -86t-101 -29q-79 0 -128.5 49t-49.5 140v322h36v-322q0 -75 38.5 -115t103.5 -40q71 0 116 51t45 146v280h36v-322q0 -75 37.5 -115t100.5 -40q72 0 118.5 51t46.5 146v280z" />
    <glyph glyph-name="uni0449.loclBGR" horiz-adv-x="891" 
d="M828 33h27v-167h-36v134q-34 2 -53 23.5t-19 56.5v18q-48 -109 -168 -109q-58 0 -101 29.5t-60 85.5q-24 -57 -70 -86t-101 -29q-79 0 -128.5 49t-49.5 140v322h36v-322q0 -75 38.5 -115t103.5 -40q71 0 116 51t45 146v280h36v-322q0 -75 37.5 -115t100.5 -40
q72 0 118.5 51t46.5 146v280h36v-420q0 -22 12 -34.5t33 -12.5z" />
    <glyph glyph-name="uni044C.loclBGR" horiz-adv-x="483" 
d="M258 326q86 0 137 -44.5t51 -118.5t-52.5 -124t-135.5 -50q-91 0 -140 48t-49 126v337h36v-174h153zM258 23q67 0 110 41t43 99q0 59 -41.5 94.5t-111.5 35.5h-153v-130q0 -61 39.5 -100.5t113.5 -39.5z" />
    <glyph glyph-name="uni044A.loclBGR" horiz-adv-x="567" 
d="M342 326q86 0 137 -44.5t51 -118.5t-52.5 -124t-135.5 -50q-91 0 -140 48t-49 126v304h-153v33h189v-174h153zM342 23q67 0 110 41t43 99q0 59 -41.5 94.5t-111.5 35.5h-153v-130q0 -61 39.5 -100.5t113.5 -39.5z" />
    <glyph glyph-name="uni044E.loclBGR" horiz-adv-x="807" 
d="M498 511q110 0 186 -75.5t76 -185.5t-76 -185.5t-186 -75.5q-104 0 -178.5 70t-80.5 174h-120v-233h-36v700h36v-433h120q6 104 80.5 174t178.5 70zM498 23q95 0 161 65.5t66 161.5t-66 161.5t-161 65.5t-160.5 -65.5t-65.5 -161.5t65.5 -161.5t160.5 -65.5z" />
    <glyph glyph-name="zero.sinf" horiz-adv-x="410" 
d="M205 -172q-77 0 -122.5 58.5t-45.5 153.5t45.5 153.5t122.5 58.5t122.5 -58.5t45.5 -153.5t-45.5 -153.5t-122.5 -58.5zM205 -140q62 0 98 48t36 132t-36 132t-98 48t-98 -48t-36 -132t36 -132t98 -48z" />
    <glyph glyph-name="one.sinf" horiz-adv-x="236" 
d="M145 240h25v-400h-34v360l-110 -38l-9 29z" />
    <glyph glyph-name="two.sinf" horiz-adv-x="344" 
d="M37 -160v27l181 171q48 45 48 96q0 36 -25.5 61t-70.5 25q-78 0 -102 -71l-29 16q14 40 48.5 63.5t83.5 23.5q59 0 94 -34t35 -84q0 -62 -58 -117l-154 -145h220v-32h-271z" />
    <glyph glyph-name="three.sinf" horiz-adv-x="341" 
d="M186 75q55 -6 86 -39.5t31 -81.5q0 -55 -37 -90.5t-101 -35.5q-101 0 -133 77l28 16q25 -61 105 -61q50 0 77 26.5t27 67.5q0 40 -27 66.5t-77 26.5h-3l-17 25l103 136h-205v32h244v-32z" />
    <glyph glyph-name="four.sinf" horiz-adv-x="357" 
d="M331 -44v-31h-59v-85h-34v85h-220v31l153 284h35l-152 -284h184v113h34v-113h59z" />
    <glyph glyph-name="five.sinf" horiz-adv-x="323" 
d="M164 81q60 0 97.5 -35.5t37.5 -91.5t-37 -91t-99 -35q-97 0 -131 76l28 15q27 -59 103 -59q47 0 74.5 25.5t27.5 68.5t-27.5 69t-74.5 26h-114l15 191h219v-31h-189l-11 -128h81z" />
    <glyph glyph-name="six.sinf" horiz-adv-x="335" 
d="M167 94q60 0 100.5 -38t40.5 -95t-40.5 -95t-100.5 -38t-100 38t-40 95q0 35 18 68l136 211h40l-102 -153q26 7 48 7zM167 -140q47 0 77 28t30 73t-30 73t-77 28q-46 0 -76 -28t-30 -73t30 -73t76 -28z" />
    <glyph glyph-name="seven.sinf" horiz-adv-x="323" 
d="M23 240h266v-27l-161 -373h-37l160 368h-228v32z" />
    <glyph glyph-name="eight.sinf" horiz-adv-x="348" 
d="M237 50q35 -14 56 -42t21 -65q0 -52 -39 -83.5t-100 -31.5q-63 0 -101.5 31.5t-38.5 83.5q0 37 21 65t56 42q-64 28 -64 91q0 51 36.5 81t90.5 30q53 0 89.5 -30t36.5 -81q0 -62 -64 -91zM82 141q0 -34 27 -55t66 -21t65.5 21t26.5 55q0 37 -26 58.5t-66 21.5
q-41 0 -67 -21.5t-26 -58.5zM175 -140q47 0 76 23t29 62q0 40 -29.5 64t-75.5 24q-48 0 -77 -23.5t-29 -64.5q0 -39 29 -62t77 -23z" />
    <glyph glyph-name="nine.sinf" horiz-adv-x="335" 
d="M308 119q0 -35 -18 -68l-136 -211h-40l102 153q-26 -7 -48 -7q-60 0 -100.5 38t-40.5 95t40.5 95t100.5 38t100 -38t40 -95zM61 119q0 -45 30 -73t77 -28q46 0 76 28t30 73t-30 73t-76 28q-47 0 -77 -28t-30 -73z" />
    <glyph glyph-name="zero.tf" 
d="M285 -11q-121 0 -189.5 98.5t-68.5 262.5t68.5 262.5t189.5 98.5t189.5 -98.5t68.5 -262.5t-68.5 -262.5t-189.5 -98.5zM285 24q103 0 162.5 87t59.5 239t-59.5 239t-162.5 87t-162.5 -87t-59.5 -239t59.5 -239t162.5 -87z" />
    <glyph glyph-name="one.tf" 
d="M325 35h218v-35h-500v35h245v625l-166 -54l-9 31l182 63h30v-665z" />
    <glyph glyph-name="two.tf" 
d="M55 0v33l282 249q66 59 102 110t36 105q0 81 -51 130t-139 49q-66 0 -116 -33.5t-72 -89.5l-31 18q27 65 86.5 102.5t132.5 37.5q100 0 163.5 -58t63.5 -156q0 -111 -151 -240l-255 -222h424v-35h-475z" />
    <glyph glyph-name="three.tf" 
d="M300 410q101 -6 163 -62t62 -147q0 -96 -69.5 -154t-179.5 -58q-83 0 -145.5 36.5t-88.5 98.5l31 18q21 -54 74 -86t129 -32q99 0 155.5 49t56.5 128t-56.5 128t-155.5 49h-10l-16 23l196 265h-388v34h430v-34z" />
    <glyph glyph-name="four.tf" 
d="M537 187v-34h-90v-153h-37v153h-383v34l270 513h40l-271 -513h344v220h37v-220h90z" />
    <glyph glyph-name="five.tf" 
d="M285 413q105 0 173.5 -58t68.5 -154t-68.5 -154t-173.5 -58q-82 0 -144 36.5t-88 100.5l31 17q20 -54 73 -86.5t128 -32.5q94 0 149.5 49t55.5 128t-55.5 128t-149.5 49h-201l23 322h391v-34h-359l-17 -253h163z" />
    <glyph glyph-name="six.tf" 
d="M282 450q111 0 179.5 -64t68.5 -166q0 -103 -68.5 -167t-179.5 -64q-112 0 -180.5 64t-68.5 167q0 81 43 138l252 342h42l-197 -269q51 19 109 19zM282 24q99 0 155 54.5t56 141.5q0 86 -56 140.5t-155 54.5q-100 0 -156 -54.5t-56 -140.5q0 -87 56 -141.5t156 -54.5z
" />
    <glyph glyph-name="seven.tf" 
d="M40 700h477v-34l-307 -666h-37l306 666h-439v34z" />
    <glyph glyph-name="eight.tf" 
d="M387 362q67 -21 104 -67.5t37 -111.5q0 -90 -66 -142t-177 -52t-177 52t-66 142q0 65 37 111.5t104 67.5q-55 21 -87 64.5t-32 100.5q0 84 61.5 134t159.5 50t159.5 -50t61.5 -134q0 -57 -32 -100.5t-87 -64.5zM101 527q0 -66 49 -108t135 -42t135 42t49 108
q0 67 -48.5 108t-135.5 41t-135.5 -41t-48.5 -108zM285 24q100 0 153.5 43.5t53.5 115.5q0 73 -53.5 116.5t-153.5 43.5t-153.5 -43.5t-53.5 -116.5q0 -72 53.5 -115.5t153.5 -43.5z" />
    <glyph glyph-name="nine.tf" 
d="M537 480q0 -81 -43 -138l-252 -342h-42l197 269q-51 -19 -109 -19q-111 0 -179.5 64t-68.5 166q0 103 68.5 167t179.5 64q112 0 180.5 -64t68.5 -167zM77 480q0 -86 56 -140.5t155 -54.5q100 0 156 54.5t56 140.5q0 87 -56 141.5t-156 54.5q-99 0 -155 -54.5t-56 -141.5z
" />
    <glyph glyph-name="zero.dnom" horiz-adv-x="410" 
d="M205 -12q-77 0 -122.5 58.5t-45.5 153.5t45.5 153.5t122.5 58.5t122.5 -58.5t45.5 -153.5t-45.5 -153.5t-122.5 -58.5zM205 20q62 0 98 48t36 132t-36 132t-98 48t-98 -48t-36 -132t36 -132t98 -48z" />
    <glyph glyph-name="one.dnom" horiz-adv-x="246" 
d="M145 400h25v-400h-34v360l-110 -38l-9 29z" />
    <glyph glyph-name="two.dnom" horiz-adv-x="344" 
d="M37 0v27l181 171q48 45 48 96q0 36 -25.5 61t-70.5 25q-78 0 -102 -71l-29 16q14 40 48.5 63.5t83.5 23.5q59 0 94 -34t35 -84q0 -62 -58 -117l-154 -145h220v-32h-271z" />
    <glyph glyph-name="three.dnom" horiz-adv-x="346" 
d="M186 235q55 -6 86 -39.5t31 -81.5q0 -55 -37 -90.5t-101 -35.5q-101 0 -133 77l28 16q25 -61 105 -61q50 0 77 26.5t27 67.5q0 40 -27 66.5t-77 26.5h-3l-17 25l103 136h-205v32h244v-32z" />
    <glyph glyph-name="four.dnom" horiz-adv-x="357" 
d="M331 116v-31h-59v-85h-34v85h-220v31l153 284h35l-152 -284h184v113h34v-113h59z" />
    <glyph glyph-name="five.dnom" horiz-adv-x="338" 
d="M162 241q60 0 97.5 -35.5t37.5 -91.5t-37 -91t-99 -35q-97 0 -131 76l28 15q27 -59 103 -59q47 0 74.5 25.5t27.5 68.5t-27.5 69t-74.5 26h-114l15 191h219v-31h-189l-11 -128h81z" />
    <glyph glyph-name="six.dnom" horiz-adv-x="335" 
d="M167 254q60 0 100.5 -38t40.5 -95t-40.5 -95t-100.5 -38t-100 38t-40 95q0 35 18 68l136 211h40l-102 -153q26 7 48 7zM167 20q47 0 77 28t30 73t-30 73t-77 28q-46 0 -76 -28t-30 -73t30 -73t76 -28z" />
    <glyph glyph-name="seven.dnom" horiz-adv-x="323" 
d="M23 400h266v-27l-161 -373h-37l160 368h-228v32z" />
    <glyph glyph-name="eight.dnom" horiz-adv-x="348" 
d="M237 210q35 -14 56 -42t21 -65q0 -52 -39 -83.5t-100 -31.5q-63 0 -101.5 31.5t-38.5 83.5q0 37 21 65t56 42q-64 28 -64 91q0 51 36.5 81t90.5 30q53 0 89.5 -30t36.5 -81q0 -62 -64 -91zM82 301q0 -34 27 -55t66 -21t65.5 21t26.5 55q0 37 -26 58.5t-66 21.5
q-41 0 -67 -21.5t-26 -58.5zM175 20q47 0 76 23t29 62q0 40 -29.5 64t-75.5 24q-48 0 -77 -23.5t-29 -64.5q0 -39 29 -62t77 -23z" />
    <glyph glyph-name="nine.dnom" horiz-adv-x="335" 
d="M308 279q0 -35 -18 -68l-136 -211h-40l102 153q-26 -7 -48 -7q-60 0 -100.5 38t-40.5 95t40.5 95t100.5 38t100 -38t40 -95zM61 279q0 -45 30 -73t77 -28q46 0 76 28t30 73t-30 73t-76 28q-47 0 -77 -28t-30 -73z" />
    <glyph glyph-name="zero.numr" horiz-adv-x="410" 
d="M205 288q-77 0 -122.5 58.5t-45.5 153.5t45.5 153.5t122.5 58.5t122.5 -58.5t45.5 -153.5t-45.5 -153.5t-122.5 -58.5zM205 320q62 0 98 48t36 132t-36 132t-98 48t-98 -48t-36 -132t36 -132t98 -48z" />
    <glyph glyph-name="one.numr" horiz-adv-x="246" 
d="M145 700h25v-400h-34v360l-110 -38l-9 29z" />
    <glyph glyph-name="two.numr" horiz-adv-x="344" 
d="M37 300v27l181 171q48 45 48 96q0 36 -25.5 61t-70.5 25q-78 0 -102 -71l-29 16q14 40 48.5 63.5t83.5 23.5q59 0 94 -34t35 -84q0 -62 -58 -117l-154 -145h220v-32h-271z" />
    <glyph glyph-name="three.numr" horiz-adv-x="346" 
d="M186 535q55 -6 86 -39.5t31 -81.5q0 -55 -37 -90.5t-101 -35.5q-101 0 -133 77l28 16q25 -61 105 -61q50 0 77 26.5t27 67.5q0 40 -27 66.5t-77 26.5h-3l-17 25l103 136h-205v32h244v-32z" />
    <glyph glyph-name="four.numr" horiz-adv-x="357" 
d="M331 416v-31h-59v-85h-34v85h-220v31l153 284h35l-152 -284h184v113h34v-113h59z" />
    <glyph glyph-name="five.numr" horiz-adv-x="338" 
d="M162 541q60 0 97.5 -35.5t37.5 -91.5t-37 -91t-99 -35q-97 0 -131 76l28 15q27 -59 103 -59q47 0 74.5 25.5t27.5 68.5t-27.5 69t-74.5 26h-114l15 191h219v-31h-189l-11 -128h81z" />
    <glyph glyph-name="six.numr" horiz-adv-x="335" 
d="M167 554q60 0 100.5 -38t40.5 -95t-40.5 -95t-100.5 -38t-100 38t-40 95q0 35 18 68l136 211h40l-102 -153q26 7 48 7zM167 320q47 0 77 28t30 73t-30 73t-77 28q-46 0 -76 -28t-30 -73t30 -73t76 -28z" />
    <glyph glyph-name="seven.numr" horiz-adv-x="323" 
d="M23 700h266v-27l-161 -373h-37l160 368h-228v32z" />
    <glyph glyph-name="eight.numr" horiz-adv-x="348" 
d="M237 510q35 -14 56 -42t21 -65q0 -52 -39 -83.5t-100 -31.5q-63 0 -101.5 31.5t-38.5 83.5q0 37 21 65t56 42q-64 28 -64 91q0 51 36.5 81t90.5 30q53 0 89.5 -30t36.5 -81q0 -62 -64 -91zM82 601q0 -34 27 -55t66 -21t65.5 21t26.5 55q0 37 -26 58.5t-66 21.5
q-41 0 -67 -21.5t-26 -58.5zM175 320q47 0 76 23t29 62q0 40 -29.5 64t-75.5 24q-48 0 -77 -23.5t-29 -64.5q0 -39 29 -62t77 -23z" />
    <glyph glyph-name="nine.numr" horiz-adv-x="335" 
d="M308 579q0 -35 -18 -68l-136 -211h-40l102 153q-26 -7 -48 -7q-60 0 -100.5 38t-40.5 95t40.5 95t100.5 38t100 -38t40 -95zM61 579q0 -45 30 -73t77 -28q46 0 76 28t30 73t-30 73t-76 28q-47 0 -77 -28t-30 -73z" />
    <glyph glyph-name="zero.sups" horiz-adv-x="410" 
d="M205 448q-77 0 -122.5 58.5t-45.5 153.5t45.5 153.5t122.5 58.5t122.5 -58.5t45.5 -153.5t-45.5 -153.5t-122.5 -58.5zM205 480q62 0 98 48t36 132t-36 132t-98 48t-98 -48t-36 -132t36 -132t98 -48z" />
    <glyph glyph-name="one.sups" horiz-adv-x="246" 
d="M145 860h25v-400h-34v360l-110 -38l-9 29z" />
    <glyph glyph-name="two.sups" horiz-adv-x="344" 
d="M37 460v27l181 171q48 45 48 96q0 36 -25.5 61t-70.5 25q-78 0 -102 -71l-29 16q14 40 48.5 63.5t83.5 23.5q59 0 94 -34t35 -84q0 -62 -58 -117l-154 -145h220v-32h-271z" />
    <glyph glyph-name="three.sups" horiz-adv-x="346" 
d="M186 695q55 -6 86 -39.5t31 -81.5q0 -55 -37 -90.5t-101 -35.5q-101 0 -133 77l28 16q25 -61 105 -61q50 0 77 26.5t27 67.5q0 40 -27 66.5t-77 26.5h-3l-17 25l103 136h-205v32h244v-32z" />
    <glyph glyph-name="four.sups" horiz-adv-x="357" 
d="M331 576v-31h-59v-85h-34v85h-220v31l153 284h35l-152 -284h184v113h34v-113h59z" />
    <glyph glyph-name="five.sups" horiz-adv-x="338" 
d="M162 701q60 0 97.5 -35.5t37.5 -91.5t-37 -91t-99 -35q-97 0 -131 76l28 15q27 -59 103 -59q47 0 74.5 25.5t27.5 68.5t-27.5 69t-74.5 26h-114l15 191h219v-31h-189l-11 -128h81z" />
    <glyph glyph-name="six.sups" horiz-adv-x="335" 
d="M167 714q60 0 100.5 -38t40.5 -95t-40.5 -95t-100.5 -38t-100 38t-40 95q0 35 18 68l136 211h40l-102 -153q26 7 48 7zM167 480q47 0 77 28t30 73t-30 73t-77 28q-46 0 -76 -28t-30 -73t30 -73t76 -28z" />
    <glyph glyph-name="seven.sups" horiz-adv-x="323" 
d="M23 860h266v-27l-161 -373h-37l160 368h-228v32z" />
    <glyph glyph-name="eight.sups" horiz-adv-x="348" 
d="M237 670q35 -14 56 -42t21 -65q0 -52 -39 -83.5t-100 -31.5q-63 0 -101.5 31.5t-38.5 83.5q0 37 21 65t56 42q-64 28 -64 91q0 51 36.5 81t90.5 30q53 0 89.5 -30t36.5 -81q0 -62 -64 -91zM82 761q0 -34 27 -55t66 -21t65.5 21t26.5 55q0 37 -26 58.5t-66 21.5
q-41 0 -67 -21.5t-26 -58.5zM175 480q47 0 76 23t29 62q0 40 -29.5 64t-75.5 24q-48 0 -77 -23.5t-29 -64.5q0 -39 29 -62t77 -23z" />
    <glyph glyph-name="nine.sups" horiz-adv-x="335" 
d="M308 739q0 -35 -18 -68l-136 -211h-40l102 153q-26 -7 -48 -7q-60 0 -100.5 38t-40.5 95t40.5 95t100.5 38t100 -38t40 -95zM61 739q0 -45 30 -73t77 -28q46 0 76 28t30 73t-30 73t-76 28q-47 0 -77 -28t-30 -73z" />
    <glyph glyph-name="cent.tf" 
d="M502 231l29 -17q-29 -57 -88 -91t-132 -34q-39 0 -78 11l-33 -100h-30l36 110q-71 30 -113.5 94.5t-42.5 145.5q0 111 75 186t186 75q31 0 59 -6l32 95h30l-34 -103q94 -32 132 -111l-29 -17q-34 70 -114 96l-143 -433q32 -9 67 -9q64 0 114.5 29.5t76.5 78.5zM85 350
q0 -70 36 -125.5t96 -82.5l143 430q-27 5 -49 5q-96 0 -161 -65.5t-65 -161.5z" />
    <glyph glyph-name="dollar.tf" 
d="M522 171q0 -78 -58 -127.5t-152 -54.5v-89h-33v89q-89 4 -149 43.5t-81 107.5l31 18q16 -60 66.5 -95t132.5 -39v320q-48 16 -75.5 28t-60 33.5t-47 52.5t-14.5 73q0 76 55.5 126t141.5 54v89h33v-90q149 -9 193 -144l-31 -18q-35 118 -162 127v-305q52 -17 82 -30
t63.5 -35.5t49 -55.5t15.5 -78zM119 531q0 -62 39 -92.5t121 -57.5v295q-74 -3 -117 -44t-43 -101zM312 24q82 4 127.5 44.5t45.5 102.5q0 36 -12 62t-38.5 44.5t-52.5 30t-70 26.5v-310z" />
    <glyph glyph-name="Euro.tf" 
d="M504 154l30 -17q-23 -70 -74.5 -109t-120.5 -39q-103 0 -166.5 75t-78.5 206h-76v31h74q-2 32 -2 49t2 51h-74v32h77q15 129 78.5 203.5t165.5 74.5q68 0 119 -38t75 -107l-30 -17q-21 61 -64.5 94t-99.5 33q-86 0 -139.5 -63.5t-67.5 -179.5h265v-32h-268q-2 -32 -2 -51
q0 -17 2 -49h268v-31h-266q14 -117 68 -181.5t140 -64.5q57 0 101 33.5t64 96.5z" />
    <glyph glyph-name="florin.tf" 
d="M533 668q-58 21 -97.5 -2.5t-53.5 -84.5l-50 -213h155v-34h-164l-99 -420q-18 -76 -67.5 -108t-119.5 -10v34q58 -21 97.5 2.5t54.5 84.5l98 417h-153v34h161l51 216q18 76 67.5 108t119.5 10v-34z" />
    <glyph glyph-name="uni20BD.tf" 
d="M337 293h-200v-112h280v-32h-280v-149h-37v149h-90v32h90v112h-90v34h90v373h237q84 0 143.5 -59.5t59.5 -143.5t-59.5 -144t-143.5 -60zM137 666v-339h200q68 0 117 50t49 120t-49 119.5t-117 49.5h-200z" />
    <glyph glyph-name="sterling.tf" 
d="M178 35h389v-35h-530v35h104v262h-84v33h84v187q0 90 56.5 142t138.5 52q71 0 119.5 -35.5t69.5 -100.5l-30 -16q-36 117 -159 117q-71 0 -114.5 -43t-43.5 -116v-187h250v-33h-250v-262z" />
    <glyph glyph-name="yen.tf" 
d="M551 700l-240 -360h183v-31h-191v-93h191v-32h-191v-184h-36v184h-189v32h189v93h-189v31h181l-240 360h41l225 -339l226 339h40z" />
    <glyph glyph-name="brevecy" horiz-adv-x="287" 
d="M20 594v30h247v-30h-247z" />
    </font>
</defs>
</svg>
